VERSION	0.00.00	1.03.00
FES_MODE	0
BPM_DEF	180.000	180.000	180.000	180.000
MET_DEF	4	4
RESOLUTION	384
CLK_DEF	384
COMPATIBLE_CODE	MA2

BPM	0	0	180.000
MET	0	0	4	4

TAP	5	0	2
TAP	5	96	2
TAP	5	192	3
TAP	5	288	3
TAP	6	0	4
TAP	6	96	4
TAP	6	192	5
TAP	7	0	5
TAP	7	96	5
TAP	7	192	4
TAP	7	288	4
TAP	8	0	3
TAP	8	96	3
TAP	8	192	2
TAP	9	0	2
TAP	9	96	2
TAP	9	192	3
TAP	9	288	3
TAP	10	0	4
TAP	10	96	4
TAP	10	192	5
TAP	11	0	5
TAP	11	96	4
TAP	11	192	3
TAP	11	288	2
STR	12	0	3
SI_	12	0	3	96	192	0
STR	12	0	4
SI_	12	0	4	96	192	7
HLD	13	0	1	384
HLD	14	0	2	384
HLD	15	0	3	384
TAP	16	0	4
HLD	17	0	6	384
HLD	18	0	5	384
HLD	19	0	4	384
TAP	20	0	3
TAP	21	0	2
TAP	21	96	2
TAP	21	192	3
TAP	21	288	3
TAP	22	0	2
TAP	22	96	3
TAP	22	192	1
TAP	22	192	4
TAP	23	0	5
TAP	23	96	5
TAP	23	192	4
TAP	23	288	4
TAP	24	0	5
TAP	24	96	4
TAP	24	192	3
TAP	24	192	6
TAP	25	0	2
TAP	25	96	2
TAP	25	192	3
TAP	25	288	3
TAP	26	0	2
TAP	26	96	3
TAP	26	192	1
TAP	26	192	4
TAP	27	0	0
TAP	27	96	0
TAP	27	192	7
TAP	27	288	7
BRK	28	0	1
BRK	28	0	6
TAP	30	0	6
TAP	30	96	6
TAP	30	192	7
TAP	30	288	7
TAP	31	0	6
TAP	31	96	7
TAP	31	192	0
TAP	31	192	5
TAP	32	0	1
TAP	32	96	1
TAP	32	192	0
TAP	32	288	0
TAP	33	0	1
TAP	33	96	0
TAP	33	192	2
TAP	33	192	7
TAP	34	0	6
TAP	34	96	6
TAP	34	192	7
TAP	34	288	7
TAP	35	0	6
TAP	35	96	7
TAP	35	192	0
TAP	35	192	5
TAP	36	0	4
TAP	36	96	4
TAP	36	192	3
TAP	36	288	3
TAP	37	0	2
TAP	37	0	5
TAP	37	96	2
TAP	37	96	5
BRK	37	192	1
BRK	37	192	6
TAP	38	0	1
TAP	38	96	1
TAP	38	192	0
TAP	38	288	0
TAP	39	0	0
TAP	39	0	1
TAP	39	96	2
TAP	39	96	7
TAP	39	192	3
TAP	39	192	6
TAP	40	0	6
TAP	40	96	6
TAP	40	192	7
TAP	40	288	7
TAP	41	0	6
TAP	41	0	7
TAP	41	96	0
TAP	41	96	5
TAP	41	192	1
TAP	41	192	4
TAP	42	0	1
TAP	42	96	1
TAP	42	192	0
TAP	42	288	0
TAP	43	0	0
TAP	43	0	1
TAP	43	96	2
TAP	43	96	7
TAP	43	192	3
TAP	43	192	6
TAP	44	0	3
TAP	44	96	3
TAP	44	192	4
TAP	44	288	4
BRK	45	0	1
BRK	45	0	6
TAP	46	0	1
TAP	46	96	2
TAP	46	192	3
TAP	46	288	4
TAP	47	0	5
TAP	47	96	6
TAP	47	192	0
TAP	47	192	7
TAP	48	0	6
TAP	48	96	5
TAP	48	192	4
TAP	48	288	3
TAP	49	0	2
TAP	49	96	1
TAP	49	192	0
TAP	49	192	7
TAP	50	0	5
TAP	50	96	6
TAP	50	192	7
TAP	50	288	0
TAP	51	0	1
TAP	51	96	2
TAP	51	192	3
TAP	51	192	4
TAP	52	0	2
TAP	52	0	5
TAP	52	96	2
TAP	52	96	5
TAP	52	192	1
TAP	52	192	6
TAP	52	288	1
TAP	52	288	6
STR	53	0	0
SI_	53	0	0	96	192	3
STR	53	0	7
SI_	53	0	7	96	192	4
STR	54	0	1
SCR	54	0	1	96	192	4
STR	55	0	6
SCL	55	0	6	96	192	3
STR	56	0	2
SCL	56	0	2	96	192	7
STR	57	0	5
SCR	57	0	5	96	192	0
STR	58	0	1
SI_	58	0	1	96	192	5
STR	59	0	6
SI_	59	0	6	96	192	2
STR	60	0	0
SI_	60	0	0	96	192	4
STR	61	0	7
SI_	61	0	7	96	192	3
TAP	62	0	0
TAP	62	0	1
TAP	62	192	0
TAP	62	192	1
TAP	63	0	2
TAP	63	0	3
TAP	63	192	2
TAP	63	192	3
TAP	64	0	4
TAP	64	0	5
TAP	64	192	4
TAP	64	192	5
TAP	65	0	6
TAP	65	0	7
TAP	65	192	6
TAP	65	192	7
TAP	66	0	0
TAP	66	96	0
TAP	66	192	1
TAP	66	288	1
TAP	67	0	2
TAP	67	96	2
TAP	67	192	3
TAP	67	288	3
TAP	68	0	4
TAP	68	96	4
TAP	68	192	5
TAP	68	288	5
TAP	69	0	6
TAP	69	96	6
TAP	69	192	7
TAP	69	288	7
BST	70	0	0
SCR	70	0	0	96	480	7
TAP	72	0	2
TAP	72	96	2
TAP	72	96	3
TAP	72	192	5
TAP	72	288	4
TAP	72	288	5
TAP	73	0	2
TAP	73	96	2
TAP	73	96	3
TAP	73	192	1
TAP	73	192	4
TAP	74	0	5
TAP	74	96	4
TAP	74	96	5
TAP	74	192	2
TAP	74	288	2
TAP	74	288	3
TAP	75	0	5
TAP	75	96	4
TAP	75	96	5
TAP	75	192	3
TAP	75	192	6
TAP	76	0	1
TAP	76	96	0
TAP	76	96	1
TAP	76	192	6
TAP	76	288	6
TAP	76	288	7
TAP	77	0	1
TAP	77	96	0
TAP	77	96	1
TAP	77	192	2
TAP	77	192	7
TAP	78	0	6
TAP	78	96	6
TAP	78	96	7
TAP	78	192	1
TAP	78	288	0
TAP	78	288	1
TAP	79	0	6
TAP	79	96	6
TAP	79	96	7
BRK	79	192	0
BRK	79	192	5
HLD	80	0	2	96
TAP	80	96	3
HLD	80	192	5	96
TAP	80	288	4
HLD	81	0	2	96
TAP	81	96	3
TAP	81	192	1
TAP	81	192	4
TAP	81	288	1
TAP	81	288	4
HLD	82	0	5	96
TAP	82	96	4
HLD	82	192	2	96
TAP	82	288	3
HLD	83	0	5	96
TAP	83	96	4
TAP	83	192	3
TAP	83	192	6
TAP	83	288	3
TAP	83	288	6
HLD	84	0	1	96
TAP	84	96	0
HLD	84	192	6	96
TAP	84	288	7
HLD	85	0	1	96
TAP	85	96	0
TAP	85	192	2
TAP	85	192	7
TAP	85	288	2
TAP	85	288	7
HLD	86	0	6	96
TAP	86	96	7
HLD	86	192	1	96
TAP	86	288	0
BRK	87	0	2
BRK	87	0	7
TAP	88	0	2
TAP	88	96	2
TAP	88	192	3
TAP	88	288	3
TAP	89	0	4
TAP	89	96	4
HLD	89	192	5	96
TAP	90	0	5
TAP	90	96	5
TAP	90	192	4
TAP	90	288	4
TAP	91	0	3
TAP	91	96	3
HLD	91	192	2	96
TAP	92	0	2
TAP	92	96	2
TAP	92	192	3
TAP	92	288	3
TAP	93	0	4
TAP	93	96	4
HLD	93	192	5	96
TAP	94	0	4
TAP	94	96	4
TAP	94	192	3
TAP	94	288	3
TAP	95	0	2
TAP	95	0	5
TAP	95	96	1
TAP	95	96	6
TAP	95	192	0
TAP	95	192	7
TAP	96	0	6
TAP	96	96	6
HLD	96	192	7	96
TAP	97	0	1
TAP	97	96	1
TAP	97	192	0
TAP	97	192	2
TAP	98	0	1
TAP	98	96	1
HLD	98	192	0	96
TAP	99	0	6
TAP	99	96	6
TAP	99	192	5
TAP	99	192	7
TAP	100	0	6
TAP	100	96	6
HLD	100	192	7	96
TAP	101	0	1
TAP	101	96	1
TAP	101	192	0
TAP	101	192	2
TAP	102	0	1
TAP	102	96	1
TAP	102	192	6
TAP	102	288	6
TAP	103	0	0
TAP	103	0	7
TAP	103	96	1
TAP	103	96	6
TAP	103	192	2
TAP	103	192	5
BRK	103	288	3
BRK	103	288	4

T_REC_TAP	306
T_REC_BRK	12
T_REC_XTP	0
T_REC_HLD	23
T_REC_XHO	0
T_REC_STR	12
T_REC_BST	1
T_REC_XST	0
T_REC_TTP	0
T_REC_THO	0
T_REC_SLD	13
T_REC_ALL	367
T_NUM_TAP	318
T_NUM_BRK	13
T_NUM_HLD	23
T_NUM_SLD	13
T_NUM_ALL	367
T_JUDGE_TAP	331
T_JUDGE_HLD	82
T_JUDGE_SLD	13
T_JUDGE_ALL	426
TTM_EACHPAIRS	70
TTM_SCR_TAP	159000
TTM_SCR_BRK	33800
TTM_SCR_HLD	23000
TTM_SCR_SLD	19500
TTM_SCR_ALL	235300
TTM_SCR_S	227000
TTM_SCR_SS	234000
TTM_RAT_ACV	10055

