VERSION	0.00.00	1.03.00
FES_MODE	0
BPM_DEF	180.000	180.000	180.000	180.000
MET_DEF	4	4
RESOLUTION	384
CLK_DEF	384
COMPATIBLE_CODE	MA2

BPM	0	0	180.000
MET	0	0	4	4

TAP	1	0	0
TAP	1	192	0
TAP	2	0	7
TAP	2	192	0
TAP	2	192	7
TAP	3	0	7
TAP	3	192	7
HLD	4	0	0	192
HLD	4	0	7	192
TAP	5	0	0
TAP	5	192	1
TAP	6	0	2
TAP	6	96	2
TAP	6	192	3
TAP	6	192	4
TAP	7	0	4
TAP	7	192	5
TAP	8	0	6
TAP	8	96	6
TAP	8	192	0
TAP	8	192	7
TAP	9	0	7
TAP	9	192	6
TAP	10	0	5
TAP	10	96	5
TAP	10	192	3
TAP	10	192	4
TAP	11	0	3
TAP	11	192	2
TAP	12	0	1
TAP	12	96	1
TAP	12	192	0
TAP	12	192	7
STR	13	0	0
SI_	13	0	0	96	288	5
STR	15	0	7
SI_	15	0	7	96	288	2
STR	17	0	1
SI_	17	0	1	96	288	4
STR	19	0	6
SI_	19	0	6	96	288	3
TAP	21	0	2
TAP	21	192	1
TAP	22	0	0
TAP	22	192	6
TAP	22	192	7
TAP	23	0	5
TAP	23	192	6
TAP	24	0	7
TAP	24	192	0
TAP	24	192	1
TAP	25	0	1
TAP	25	192	2
TAP	26	0	3
TAP	26	192	4
TAP	26	192	5
TAP	27	0	4
TAP	27	0	5
TAP	27	192	3
TAP	27	192	4
HLD	28	0	2	384
HLD	28	0	3	384
TAP	30	0	3
TAP	30	192	4
TAP	31	0	5
TAP	31	96	5
TAP	31	192	6
TAP	31	192	7
TAP	32	0	7
TAP	32	192	6
TAP	33	0	5
TAP	33	96	5
TAP	33	192	3
TAP	33	192	4
TAP	34	0	4
TAP	34	192	3
TAP	35	0	2
TAP	35	96	2
TAP	35	192	0
TAP	35	192	1
TAP	36	0	7
TAP	36	96	7
TAP	36	192	0
TAP	36	288	0
HLD	37	0	0	192
HLD	37	0	7	192
TAP	38	0	7
TAP	38	192	0
TAP	39	0	1
TAP	39	96	1
TAP	39	192	2
TAP	39	192	3
TAP	40	0	3
TAP	40	192	2
TAP	41	0	1
TAP	41	96	1
TAP	41	192	0
TAP	41	192	7
TAP	42	0	0
TAP	42	192	7
TAP	43	0	6
TAP	43	96	6
TAP	43	192	4
TAP	43	192	5
TAP	44	0	3
TAP	44	96	3
TAP	44	192	4
TAP	44	288	4
HLD	45	0	2	192
HLD	45	0	5	192
TAP	46	0	3
TAP	46	96	3
TAP	46	192	4
TAP	46	288	4
TAP	47	0	3
TAP	47	96	3
BRK	47	192	4
TAP	48	0	4
TAP	48	96	4
TAP	48	192	3
TAP	48	288	3
TAP	49	0	4
TAP	49	96	4
BRK	49	192	3
TAP	50	0	5
TAP	50	96	5
TAP	50	192	4
TAP	50	288	4
TAP	51	0	5
TAP	51	96	5
BRK	51	192	4
BRK	51	192	5
TAP	52	0	2
TAP	52	96	2
TAP	52	192	3
TAP	52	288	3
HLD	53	0	2	192
HLD	53	0	3	192
HLD	54	0	1	192
HLD	55	0	0	192
HLD	56	0	7	192
HLD	57	0	6	192
HLD	58	0	4	192
HLD	58	0	5	192
HLD	59	0	3	192
HLD	59	0	4	192
HLD	60	0	2	192
HLD	60	0	3	192
HLD	61	0	1	192
STR	62	0	0
SI_	62	0	0	96	288	3
STR	64	0	7
SI_	64	0	7	96	288	4
STR	66	0	0
SI_	66	0	0	96	288	4
STR	68	0	7
SI_	68	0	7	96	288	3
BRK	70	0	1
BRK	70	0	6
TAP	72	0	0
TAP	72	96	0
TAP	72	192	1
TAP	73	0	2
TAP	73	96	2
TAP	73	192	3
TAP	73	192	4
TAP	74	0	4
TAP	74	96	4
TAP	74	192	5
TAP	75	0	6
TAP	75	96	6
TAP	75	192	0
TAP	75	192	7
TAP	76	0	7
TAP	76	96	7
TAP	76	192	6
TAP	77	0	5
TAP	77	96	5
TAP	77	192	3
TAP	77	192	4
TAP	78	0	3
TAP	78	96	3
TAP	78	192	2
TAP	79	0	1
TAP	79	96	1
TAP	79	192	0
TAP	79	192	7
TAP	80	0	1
TAP	80	96	1
TAP	80	192	2
TAP	80	288	2
TAP	81	0	3
TAP	81	96	3
TAP	81	192	4
TAP	81	192	5
TAP	82	0	6
TAP	82	96	6
TAP	82	192	5
TAP	82	288	5
TAP	83	0	4
TAP	83	96	4
TAP	83	192	2
TAP	83	192	3
TAP	84	0	2
TAP	84	96	2
TAP	84	192	1
TAP	84	288	1
TAP	85	0	0
TAP	85	96	0
TAP	85	192	6
TAP	85	192	7
TAP	86	0	5
TAP	86	96	5
TAP	86	192	6
TAP	86	288	6
HLD	87	0	0	192
HLD	87	0	7	192
TAP	88	0	0
TAP	88	192	0
TAP	88	192	1
TAP	89	0	7
TAP	89	192	6
TAP	89	192	7
TAP	90	0	5
TAP	90	192	4
TAP	90	192	5
TAP	91	0	2
TAP	91	192	2
TAP	91	192	3
TAP	92	0	4
TAP	92	192	4
TAP	92	192	5
TAP	93	0	3
TAP	93	192	2
TAP	93	192	3
TAP	94	0	1
TAP	94	192	0
TAP	94	192	1
TAP	95	0	6
TAP	95	192	6
TAP	95	192	7
TAP	96	0	5
TAP	96	96	4
TAP	96	192	5
TAP	97	0	2
TAP	97	96	3
TAP	97	192	2
TAP	98	0	1
TAP	98	96	0
TAP	98	192	1
TAP	99	0	6
TAP	99	96	7
TAP	99	192	6
TAP	100	0	0
TAP	100	0	1
TAP	100	96	0
TAP	100	96	1
TAP	100	192	0
TAP	100	192	1
TAP	101	0	2
TAP	101	0	3
TAP	101	96	2
TAP	101	96	3
TAP	101	192	2
TAP	101	192	3
TAP	102	0	4
TAP	102	0	5
TAP	102	96	4
TAP	102	96	5
TAP	102	192	4
TAP	102	192	5
HLD	103	0	6	192
HLD	103	0	7	192

T_REC_TAP	226
T_REC_BRK	6
T_REC_XTP	0
T_REC_HLD	25
T_REC_XHO	0
T_REC_STR	8
T_REC_BST	0
T_REC_XST	0
T_REC_TTP	0
T_REC_THO	0
T_REC_SLD	8
T_REC_ALL	273
T_NUM_TAP	234
T_NUM_BRK	6
T_NUM_HLD	25
T_NUM_SLD	8
T_NUM_ALL	273
T_JUDGE_TAP	240
T_JUDGE_HLD	108
T_JUDGE_SLD	8
T_JUDGE_ALL	356
TTM_EACHPAIRS	52
TTM_SCR_TAP	117000
TTM_SCR_BRK	15600
TTM_SCR_HLD	25000
TTM_SCR_SLD	12000
TTM_SCR_ALL	169600
TTM_SCR_S	163950
TTM_SCR_SS	169000
TTM_RAT_ACV	10035

