VERSION	0.00.00	1.03.00
FES_MODE	0
BPM_DEF	190.000	190.000	190.000	190.000
MET_DEF	4	4
RESOLUTION	384
CLK_DEF	384
COMPATIBLE_CODE	MA2

BPM	0	0	190.000

STR	1	0	2
SCL	1	0	2	96	96	7
HLD	1	0	5	192
TAP	1	288	3
TAP	1	288	4
HLD	2	0	2	192
STR	2	0	5
SCR	2	0	5	96	96	0
TAP	2	288	3
TAP	2	288	4
TAP	3	0	0
STR	3	0	1
SCR	3	0	1	96	48	4
STR	3	192	6
SCL	3	192	6	96	48	3
TAP	3	192	7
TAP	4	0	2
TAP	4	0	5
TAP	4	48	1
TAP	4	48	6
TAP	4	96	0
TAP	4	96	7
BRK	4	192	1
BRK	4	192	6
TAP	4	240	7
TAP	4	288	0
TAP	4	336	4
STR	5	0	2
SUR	5	0	2	96	48	7
STR	5	0	3
SCR	5	0	3	96	48	6
STR	5	192	4
SCL	5	192	4	96	48	1
STR	5	192	5
SUL	5	192	5	96	48	0
STR	6	0	2
SUR	6	0	2	96	48	7
STR	6	0	3
SCR	6	0	3	96	48	6
TAP	6	192	3
TAP	6	192	4
TAP	6	288	1
TAP	6	288	7
STR	7	0	4
SCL	7	0	4	96	48	1
STR	7	0	5
SUL	7	0	5	96	48	0
STR	7	192	2
SUR	7	192	2	96	48	7
STR	7	192	3
SCR	7	192	3	96	48	6
STR	8	0	4
SCL	8	0	4	96	48	1
STR	8	0	5
SUL	8	0	5	96	48	0
TAP	8	192	3
TAP	8	192	4
TAP	8	288	0
TAP	8	288	6
STR	9	0	2
SCL	9	0	2	96	48	7
STR	9	0	3
SUL	9	0	3	96	48	6
STR	9	192	4
SUR	9	192	4	96	48	1
STR	9	192	5
SCR	9	192	5	96	48	0
STR	10	0	2
SCL	10	0	2	96	48	7
STR	10	0	3
SUL	10	0	3	96	48	6
TAP	10	192	3
TAP	10	192	4
TAP	10	288	1
TAP	10	288	7
STR	11	0	4
SUR	11	0	4	96	48	1
STR	11	0	5
SCR	11	0	5	96	48	0
STR	11	192	2
SCL	11	192	2	96	48	7
STR	11	192	3
SUL	11	192	3	96	48	6
TAP	12	0	3
TAP	12	0	4
STR	12	96	0
SCR	12	96	0	96	48	3
STR	12	96	7
SCL	12	96	7	96	48	4
BRK	12	288	1
BRK	12	288	6
TAP	13	0	2
TAP	13	48	3
TAP	13	96	5
TAP	13	144	4
STR	13	192	3
SI_	13	192	3	96	48	0
SI_	13	192	3	96	48	6
HLD	14	0	7	96
TAP	14	96	0
TAP	14	144	0
TAP	14	192	2
TAP	14	192	7
TAP	14	288	0
TAP	14	288	5
STR	15	0	5
SUR	15	0	5	96	48	2
STR	15	0	6
SCR	15	0	6	96	48	1
TAP	15	192	3
TAP	15	192	4
TAP	15	240	2
TAP	15	240	5
TAP	15	288	1
TAP	15	288	6
TAP	16	0	2
HLD	16	0	5	192
TAP	16	96	7
TAP	16	144	7
HLD	16	192	2	96
TAP	16	288	0
TAP	17	0	4
TAP	17	48	5
TAP	17	96	3
TAP	17	144	2
STR	17	192	4
SI_	17	192	4	96	48	1
SI_	17	192	4	96	48	7
HLD	18	0	0	96
TAP	18	96	7
TAP	18	144	7
TAP	18	192	0
TAP	18	192	5
TAP	18	288	2
TAP	18	288	7
STR	19	0	4
SCL	19	0	4	96	48	1
STR	19	0	5
SCR	19	0	5	96	48	0
STR	19	192	2
SCL	19	192	2	96	48	7
STR	19	192	3
SCR	19	192	3	96	48	6
TAP	20	0	1
TAP	20	0	6
TAP	20	48	2
TAP	20	48	5
STR	20	96	3
SI_	20	96	3	96	48	0
STR	20	96	4
SI_	20	96	4	96	48	7
BRK	20	288	1
BRK	20	288	6
TAP	21	0	5
TAP	21	48	4
TAP	21	96	2
TAP	21	144	3
STR	21	192	4
SI_	21	192	4	96	48	1
SI_	21	192	4	96	48	7
HLD	22	0	0	96
TAP	22	96	7
TAP	22	144	7
TAP	22	192	0
TAP	22	192	4
TAP	22	288	3
TAP	22	288	7
STR	23	0	4
SCL	23	0	4	96	48	1
STR	23	0	5
SCR	23	0	5	96	48	0
STR	23	192	2
SCL	23	192	2	96	48	7
STR	23	192	3
SCR	23	192	3	96	48	6
STR	24	0	1
SUL	24	0	1	96	96	4
SUR	24	0	1	96	96	6
BRK	24	288	1
BRK	24	288	6
TAP	25	0	2
TAP	25	48	3
TAP	25	96	5
TAP	25	144	4
TAP	25	192	3
TAP	25	192	4
STR	25	288	0
SI_	25	288	0	96	48	3
TAP	25	288	7
STR	26	0	7
SI_	26	0	7	96	48	4
STR	26	96	0
SI_	26	96	0	96	48	3
BRK	26	192	7
BRK	26	288	1
BRK	26	288	6
HLD	27	0	2	48
HLD	27	0	3	48
HLD	27	96	4	48
HLD	27	96	5	48
STR	27	192	2
SI_	27	192	2	96	48	7
STR	27	192	3
SI_	27	192	3	96	48	6
TAP	28	0	2
TAP	28	0	7
TAP	28	48	3
TAP	28	48	6
STR	28	96	4
SI_	28	96	4	96	48	1
STR	28	96	5
SI_	28	96	5	96	48	0
BRK	28	288	2
BRK	28	288	7
HLD	29	0	1	96
STR	29	0	6
SCL	29	0	6	96	48	3
TAP	29	144	1
TAP	29	192	0
TAP	29	192	1
TAP	29	288	2
TAP	29	288	7
STR	30	0	1
SCR	30	0	1	96	48	4
HLD	30	0	6	96
TAP	30	144	6
TAP	30	192	6
TAP	30	192	7
TAP	30	288	0
TAP	30	288	5
TAP	31	0	2
TAP	31	96	1
TAP	31	96	3
TAP	31	192	5
STR	31	288	4
SCL	31	288	4	96	144	5
TAP	31	288	6
TAP	32	192	1
TAP	32	192	7
TAP	32	288	3
TAP	32	288	4
HLD	33	0	0	288
TAP	33	144	4
HLD	33	192	4	96
STR	34	0	0
SXL	34	0	0	96	192	3
STR	34	0	4
SXL	34	0	4	96	192	7
STR	35	0	6
SI_	35	0	6	96	48	2
STR	35	0	7
SI_	35	0	7	96	48	1
STR	35	192	0
SI_	35	192	0	96	48	4
HLD	36	0	2	96
STR	36	0	7
SLL	36	0	7	96	96	2
STR	36	288	7
SI_	36	288	7	96	48	1
STR	37	0	4
SLL	37	0	4	96	96	6
STR	37	288	2
SUR	37	288	2	96	288	3
STR	37	288	3
SCR	37	288	3	96	288	2
STR	39	0	4
SI_	39	0	4	96	48	1
STR	39	0	5
SI_	39	0	5	96	48	0
STR	39	192	2
SI_	39	192	2	96	48	7
STR	39	192	3
SI_	39	192	3	96	48	6
TAP	40	0	1
TAP	40	0	6
TAP	40	48	0
TAP	40	72	7
TAP	40	96	0
TAP	40	144	1
TAP	40	144	6
BRK	40	192	2
BRK	40	192	5
STR	41	0	0
SCL	41	0	0	96	48	5
STR	41	0	1
SCR	41	0	1	96	48	4
TAP	41	192	6
TAP	41	240	7
STR	41	288	0
SCR	41	288	0	96	96	4
STR	42	0	4
SCR	42	0	4	96	96	0
TAP	42	96	0
TAP	42	192	4
TAP	42	288	2
TAP	42	288	7
STR	43	0	2
SI_	43	0	2	96	48	0
STR	43	0	3
SI_	43	0	3	96	48	5
STR	43	192	4
SI_	43	192	4	96	48	2
STR	43	192	5
SI_	43	192	5	96	48	7
STR	44	0	2
SCL	44	0	2	96	96	6
SUL	44	0	2	96	96	5
TAP	44	0	3
BRK	44	240	7
BRK	44	288	7
STR	45	0	3
SI_	45	0	3	96	48	0
STR	45	0	4
SI_	45	0	4	96	48	7
TAP	45	192	2
TAP	45	192	5
TAP	45	240	1
TAP	45	240	6
STR	45	288	0
SCR	45	288	0	96	48	3
STR	45	288	7
SCL	45	288	7	96	48	4
STR	46	96	0
SV_	46	96	0	96	48	3
STR	46	96	7
SI_	46	96	7	96	48	4
BRK	46	288	1
BRK	46	288	6
STR	47	0	2
SI_	47	0	2	96	48	7
STR	47	0	3
SI_	47	0	3	96	48	6
STR	47	192	4
SI_	47	192	4	96	48	1
STR	47	192	5
SI_	47	192	5	96	48	0
STR	48	0	3
SI_	48	0	3	96	48	0
STR	48	0	4
SI_	48	0	4	96	48	7
TAP	48	192	0
TAP	48	192	7
BRK	48	240	1
BRK	48	240	6
BRK	48	288	1
BRK	48	288	6
STR	49	0	6
SCL	49	0	6	96	48	3
STR	49	0	7
SCR	49	0	7	96	48	2
TAP	49	192	1
TAP	49	240	0
STR	49	288	7
SCL	49	288	7	96	96	3
STR	50	0	3
SCL	50	0	3	96	96	7
TAP	50	96	7
TAP	50	192	3
TAP	50	288	0
TAP	50	288	5
STR	51	0	4
SI_	51	0	4	96	48	2
STR	51	0	5
SI_	51	0	5	96	48	7
STR	51	192	2
SI_	51	192	2	96	48	0
STR	51	192	3
SI_	51	192	3	96	48	5
TAP	52	0	4
STR	52	0	5
SCR	52	0	5	96	96	1
SUR	52	0	5	96	96	2
BRK	52	240	0
BRK	52	288	0
HLD	53	0	3	96
HLD	53	96	0	96
TAP	53	192	5
STR	53	240	5
SLL	53	240	5	96	96	1
SLR	53	240	5	96	96	1
TAP	54	96	3
TAP	54	96	7
TAP	54	192	0
TAP	54	192	1
TAP	54	240	2
TAP	54	240	7
TAP	54	288	3
TAP	54	288	6
STR	55	0	2
SCR	55	0	2	96	48	5
TAP	55	0	5
TAP	55	192	1
STR	55	192	6
SCR	55	192	6	96	48	1
STR	56	0	0
SV_	56	0	0	96	48	3
STR	56	0	6
SV_	56	0	6	96	48	3
BRK	56	192	1
BRK	56	192	7
HLD	57	0	5	96
HLD	57	144	4	96
HLD	57	144	6	96
TAP	57	288	5
TAP	57	336	3
HLD	58	0	2	96
HLD	58	144	1	96
HLD	58	144	3	96
TAP	58	288	2
TAP	58	336	4
HLD	59	0	6	96
HLD	59	144	5	96
HLD	59	144	7	96
TAP	59	288	6
TAP	59	336	4
TAP	60	0	2
TAP	60	48	2
TAP	60	96	1
TAP	60	96	3
TAP	60	192	5
TAP	60	240	5
TAP	60	288	4
TAP	60	288	6
HLD	61	0	2	96
HLD	61	144	1	96
HLD	61	144	3	96
TAP	61	288	2
TAP	61	336	4
HLD	62	0	5	96
HLD	62	144	4	96
HLD	62	144	6	96
TAP	62	288	5
TAP	62	336	5
HLD	63	0	6	96
HLD	63	0	7	96
TAP	63	192	0
TAP	63	192	1
TAP	63	240	0
TAP	63	240	1
TAP	63	288	2
TAP	63	288	7
TAP	64	0	6
TAP	64	0	7
TAP	64	96	2
TAP	64	96	3
BRK	64	192	2
BRK	64	192	7
TAP	64	288	3
TAP	64	288	4
STR	65	0	2
SI_	65	0	2	96	48	7
TAP	65	0	4
TAP	65	96	3
STR	65	192	2
SI_	65	192	2	96	48	7
TAP	65	192	4
TAP	65	288	3
TAP	66	0	3
STR	66	0	5
SI_	66	0	5	96	48	0
TAP	66	96	4
TAP	66	192	3
STR	66	192	5
SI_	66	192	5	96	48	0
TAP	66	288	4
STR	67	0	2
SI_	67	0	2	96	48	7
TAP	67	0	4
TAP	67	96	3
STR	67	192	2
SI_	67	192	2	96	48	7
TAP	67	192	4
TAP	67	288	3
TAP	68	0	3
STR	68	0	5
SI_	68	0	5	96	48	0
TAP	68	96	4
TAP	68	192	3
STR	68	192	5
SI_	68	192	5	96	48	0
TAP	68	288	4
STR	69	0	2
SI_	69	0	2	96	48	6
TAP	69	0	4
TAP	69	96	3
STR	69	192	2
SI_	69	192	2	96	48	6
TAP	69	192	4
TAP	69	288	3
TAP	70	0	3
STR	70	0	5
SI_	70	0	5	96	48	1
TAP	70	96	4
TAP	70	192	3
STR	70	192	5
SI_	70	192	5	96	48	1
TAP	70	288	4
STR	71	0	3
SUR	71	0	3	96	192	6
SXR	71	0	3	96	192	0
STR	72	0	4
SUL	72	0	4	96	192	1
SXL	72	0	4	96	192	7
BRK	73	0	1
BRK	73	0	6
TAP	74	288	3
TAP	74	288	4
STR	75	0	4
SCL	75	0	4	96	48	2
STR	75	0	5
SCR	75	0	5	96	48	7
STR	75	192	2
SCL	75	192	2	96	48	0
STR	75	192	3
SCR	75	192	3	96	48	5
TAP	76	0	4
STR	76	0	5
SCR	76	0	5	96	96	1
SUR	76	0	5	96	96	2
BRK	76	240	0
BRK	76	288	0
STR	77	0	3
SI_	77	0	3	96	48	0
STR	77	0	4
SI_	77	0	4	96	48	7
TAP	77	192	1
TAP	77	192	6
TAP	77	240	2
TAP	77	240	5
STR	77	288	3
SCL	77	288	3	96	48	0
STR	77	288	4
SCR	77	288	4	96	48	7
STR	78	96	3
SV_	78	96	3	96	48	0
STR	78	96	4
SI_	78	96	4	96	48	7
BRK	78	288	1
BRK	78	288	6
STR	79	0	2
SI_	79	0	2	96	48	7
STR	79	0	3
SI_	79	0	3	96	48	6
STR	79	192	4
SI_	79	192	4	96	48	1
STR	79	192	5
SI_	79	192	5	96	48	0
STR	80	0	3
SI_	80	0	3	96	48	0
STR	80	0	4
SI_	80	0	4	96	48	7
TAP	80	192	0
TAP	80	192	7
BRK	80	240	1
BRK	80	240	6
BRK	80	288	1
BRK	80	288	6
STR	81	0	0
SCL	81	0	0	96	48	5
STR	81	0	1
SCR	81	0	1	96	48	4
TAP	81	192	6
TAP	81	240	7
STR	81	288	0
SCR	81	288	0	96	96	4
STR	82	0	4
SCR	82	0	4	96	96	0
TAP	82	96	0
TAP	82	192	4
TAP	82	288	2
TAP	82	288	7
STR	83	0	2
SI_	83	0	2	96	48	0
STR	83	0	3
SI_	83	0	3	96	48	7
STR	83	192	4
SI_	83	192	4	96	48	0
STR	83	192	5
SI_	83	192	5	96	48	7
STR	84	0	2
SCL	84	0	2	96	96	6
TAP	84	0	3
TAP	84	96	4
HLD	84	192	5	96
BRK	84	288	7
HLD	85	0	4	96
HLD	85	96	7	96
TAP	85	192	2
STR	85	240	2
SLL	85	240	2	96	96	6
SLR	85	240	2	96	96	6
TAP	86	96	0
TAP	86	96	4
TAP	86	192	6
TAP	86	192	7
TAP	86	240	0
TAP	86	240	5
TAP	86	288	1
TAP	86	288	4
TAP	87	0	2
STR	87	0	5
SCL	87	0	5	96	48	2
STR	87	192	1
SCL	87	192	1	96	48	6
TAP	87	192	6
STR	88	0	1
SV_	88	0	1	96	48	4
STR	88	0	7
SV_	88	0	7	96	48	4
BRK	88	192	0
BRK	88	192	6
STR	88	288	2
SI_	88	288	2	96	48	0
TAP	88	288	5
STR	89	0	5
SI_	89	0	5	96	48	7
STR	89	96	3
SI_	89	96	3	96	48	7
STR	89	192	4
SI_	89	192	4	96	48	0
TAP	89	288	3
STR	90	0	2
SCL	90	0	2	96	48	7
STR	90	0	3
SCR	90	0	3	96	48	6
TAP	90	192	0
TAP	90	192	5
BRK	90	288	3
BST	90	288	5
SI_	90	288	5	96	48	7
STR	91	0	2
SI_	91	0	2	96	48	0
STR	91	96	4
SI_	91	96	4	96	48	0
STR	91	192	3
SI_	91	192	3	96	72	7
TAP	91	288	4
STR	92	0	4
SCL	92	0	4	96	48	1
STR	92	0	5
SCR	92	0	5	96	48	0
TAP	92	192	2
TAP	92	192	7
BST	92	288	2
SI_	92	288	2	96	48	0
BRK	92	288	4
STR	93	0	5
SI_	93	0	5	96	48	7
STR	93	96	3
SI_	93	96	3	96	48	7
STR	93	192	4
SI_	93	192	4	96	48	0
TAP	93	288	3
STR	94	0	2
SCL	94	0	2	96	48	7
STR	94	0	3
SCR	94	0	3	96	48	6
TAP	94	192	0
TAP	94	192	5
BRK	94	288	3
BST	94	288	5
SI_	94	288	5	96	48	7
STR	95	0	2
SI_	95	0	2	96	48	0
STR	95	96	4
SI_	95	96	4	96	48	0
STR	95	192	3
SI_	95	192	3	96	48	7
TAP	95	288	4
STR	96	0	4
SCL	96	0	4	96	48	1
STR	96	0	5
SCR	96	0	5	96	48	0
TAP	96	192	2
TAP	96	192	7
BRK	96	288	2
BRK	96	288	4
TAP	97	0	4
TAP	97	0	5
TAP	97	48	4
TAP	97	48	5
TAP	97	144	2
TAP	97	144	3
TAP	97	192	2
TAP	97	192	3
STR	97	288	3
SI_	97	288	3	96	48	0
STR	97	288	4
SI_	97	288	4	96	48	7
TAP	97	336	3
TAP	97	336	4
BRK	98	96	1
BRK	98	96	6
BRK	98	144	1
BRK	98	144	6

T_REC_TAP	247
T_REC_BRK	51
T_REC_XTP	0
T_REC_HLD	38
T_REC_XHO	0
T_REC_STR	171
T_REC_BST	3
T_REC_XST	0
T_REC_TTP	0
T_REC_THO	0
T_REC_SLD	185
T_REC_ALL	695
T_NUM_TAP	418
T_NUM_BRK	54
T_NUM_HLD	38
T_NUM_SLD	185
T_NUM_ALL	695
T_JUDGE_TAP	472
T_JUDGE_HLD	82
T_JUDGE_SLD	185
T_JUDGE_ALL	739
TTM_EACHPAIRS	187
TTM_SCR_TAP	209000
TTM_SCR_BRK	140400
TTM_SCR_HLD	38000
TTM_SCR_SLD	277500
TTM_SCR_ALL	664900
TTM_SCR_S	639750
TTM_SCR_SS	659500
TTM_RAT_ACV	10081

