VERSION	0.00.00	1.03.00
FES_MODE	0
BPM_DEF	190.000	190.000	190.000	190.000
MET_DEF	4	4
RESOLUTION	384
CLK_DEF	384
COMPATIBLE_CODE	MA2

BPM	0	0	190.000

HLD	1	0	1	192
TAP	1	192	0
HLD	2	0	6	192
TAP	2	192	7
HLD	3	0	1	96
TAP	3	96	0
HLD	3	192	6	96
TAP	3	288	7
TAP	4	0	2
TAP	4	0	5
TAP	4	96	1
TAP	4	96	6
STR	4	192	0
SI_	4	192	0	96	48	3
STR	4	192	7
SI_	4	192	7	96	48	4
HLD	5	0	5	192
TAP	5	96	7
HLD	5	192	2	192
TAP	5	288	0
HLD	6	0	5	192
TAP	6	96	7
TAP	6	192	4
TAP	6	288	2
TAP	6	288	7
HLD	7	0	2	192
TAP	7	96	0
HLD	7	192	5	192
TAP	7	288	7
HLD	8	0	2	192
TAP	8	96	0
TAP	8	192	3
TAP	8	288	0
TAP	8	288	5
HLD	9	0	5	192
TAP	9	96	7
HLD	9	192	2	192
TAP	9	288	0
HLD	10	0	5	192
TAP	10	96	7
TAP	10	192	4
TAP	10	288	2
TAP	10	288	7
HLD	11	0	2	192
TAP	11	96	0
HLD	11	192	5	192
TAP	11	288	7
TAP	12	0	2
STR	12	96	3
SI_	12	96	3	96	48	0
STR	12	96	4
SI_	12	96	4	96	48	7
BRK	12	288	1
BRK	12	288	6
STR	13	0	0
SI_	13	0	0	96	48	4
STR	13	0	1
SI_	13	0	1	96	48	3
TAP	13	192	6
TAP	13	192	7
TAP	13	288	0
TAP	13	288	5
TAP	14	0	2
TAP	14	0	4
TAP	14	96	3
TAP	14	96	5
TAP	14	192	1
TAP	14	192	7
TAP	14	288	0
TAP	14	288	6
TAP	15	0	2
TAP	15	96	1
TAP	15	96	3
TAP	15	192	5
TAP	15	288	4
TAP	15	288	6
TAP	16	0	0
STR	16	96	1
SCL	16	96	1	96	96	6
STR	16	96	2
SUL	16	96	2	96	96	5
TAP	17	0	4
STR	17	0	5
SCR	17	0	5	96	48	0
STR	17	192	2
SCL	17	192	2	96	48	7
TAP	17	192	3
TAP	18	0	3
TAP	18	0	4
TAP	18	96	1
TAP	18	96	6
TAP	18	192	0
TAP	18	192	5
TAP	18	288	2
TAP	18	288	7
TAP	19	0	0
HLD	19	0	6	96
TAP	19	96	5
HLD	19	192	1	96
TAP	19	192	7
TAP	19	288	2
TAP	20	0	0
TAP	20	0	7
TAP	20	96	3
TAP	20	96	4
TAP	20	192	1
TAP	20	192	6
BRK	20	288	7
STR	21	0	6
SI_	21	0	6	96	48	4
STR	21	0	7
SI_	21	0	7	96	48	3
TAP	21	192	0
TAP	21	192	1
TAP	21	288	2
TAP	21	288	7
TAP	22	0	3
TAP	22	0	5
TAP	22	96	2
TAP	22	96	4
TAP	22	192	0
TAP	22	192	6
TAP	22	288	1
TAP	22	288	7
TAP	23	0	5
TAP	23	96	4
TAP	23	96	6
TAP	23	192	2
TAP	23	288	1
TAP	23	288	3
TAP	24	0	7
STR	24	96	5
SUR	24	96	5	96	96	2
STR	24	96	6
SCR	24	96	6	96	96	1
TAP	25	0	0
STR	25	0	1
SCR	25	0	1	96	48	4
STR	25	192	6
SCL	25	192	6	96	48	3
TAP	25	192	7
STR	26	0	0
SI_	26	0	0	96	48	3
STR	26	0	7
SI_	26	0	7	96	48	4
TAP	26	192	2
TAP	26	192	7
TAP	26	288	0
TAP	26	288	5
HLD	27	0	2	96
TAP	27	0	4
TAP	27	96	1
TAP	27	192	3
HLD	27	192	5	96
TAP	27	288	6
TAP	28	0	0
TAP	28	0	7
TAP	28	96	3
TAP	28	96	4
TAP	28	192	1
TAP	28	192	6
BRK	28	288	0
HLD	29	0	5	192
TAP	29	144	4
TAP	29	192	4
TAP	29	288	1
TAP	29	288	7
HLD	30	0	2	192
TAP	30	144	3
TAP	30	192	3
TAP	30	288	0
TAP	30	288	6
TAP	31	0	5
TAP	31	96	4
TAP	31	96	6
TAP	31	192	2
STR	31	288	1
SCL	31	288	1	96	96	6
TAP	31	288	3
TAP	32	192	1
TAP	32	192	6
HLD	33	0	2	192
TAP	33	144	3
TAP	33	192	3
TAP	33	288	0
TAP	33	288	6
HLD	34	0	5	192
TAP	34	144	4
TAP	34	192	4
TAP	34	288	1
TAP	34	288	7
TAP	35	0	2
TAP	35	96	2
TAP	35	96	3
TAP	35	192	5
TAP	35	240	5
TAP	35	288	4
HLD	36	0	6	96
TAP	36	96	7
HLD	36	192	1	96
TAP	36	288	0
TAP	37	0	2
TAP	37	0	3
TAP	37	96	0
TAP	37	96	1
TAP	37	192	6
TAP	37	192	7
TAP	37	288	4
TAP	37	288	5
STR	38	0	4
SXR	38	0	4	96	144	3
STR	38	0	5
SXL	38	0	5	96	144	6
STR	39	0	2
SI_	39	0	2	96	48	7
TAP	39	0	3
TAP	39	192	4
STR	39	192	5
SI_	39	192	5	96	48	0
TAP	40	0	1
TAP	40	0	3
TAP	40	96	3
TAP	40	96	5
BRK	40	192	0
BRK	40	192	6
TAP	41	0	7
TAP	41	96	4
TAP	41	96	6
TAP	41	192	0
TAP	41	288	1
TAP	41	288	3
TAP	42	0	5
TAP	42	48	5
TAP	42	96	4
TAP	42	192	2
STR	42	192	6
SI_	42	192	6	96	48	3
TAP	43	0	0
TAP	43	96	1
TAP	43	96	3
TAP	43	192	7
TAP	43	288	4
TAP	43	288	6
TAP	44	0	2
TAP	44	48	2
TAP	44	96	3
STR	44	192	1
SI_	44	192	1	96	48	4
TAP	44	192	5
TAP	45	0	7
TAP	45	96	4
TAP	45	96	6
TAP	45	192	0
TAP	45	288	1
TAP	45	288	3
TAP	46	0	5
TAP	46	48	5
TAP	46	96	4
TAP	46	192	2
STR	46	192	6
SI_	46	192	6	96	48	0
TAP	47	0	2
TAP	47	96	0
TAP	47	96	6
TAP	47	192	5
TAP	47	288	1
TAP	47	288	7
TAP	48	0	3
TAP	48	0	4
HLD	48	96	1	96
HLD	48	96	6	96
BRK	48	240	0
BRK	48	240	7
BRK	48	288	0
BRK	48	288	7
TAP	49	0	0
TAP	49	96	1
TAP	49	96	3
TAP	49	192	7
TAP	49	288	4
TAP	49	288	6
TAP	50	0	2
TAP	50	48	2
TAP	50	96	3
STR	50	192	1
SI_	50	192	1	96	48	5
TAP	50	192	5
TAP	51	0	7
TAP	51	96	4
TAP	51	96	6
TAP	51	192	0
TAP	51	288	1
TAP	51	288	3
TAP	52	0	5
TAP	52	48	5
TAP	52	96	4
TAP	52	192	2
STR	52	192	6
SI_	52	192	6	96	48	2
TAP	53	0	0
TAP	53	0	1
TAP	53	96	2
TAP	53	96	7
TAP	53	192	3
TAP	53	192	6
TAP	53	288	4
TAP	53	288	5
TAP	54	0	2
TAP	54	0	3
STR	54	96	6
SCL	54	96	6	96	96	3
STR	54	96	7
SCR	54	96	7	96	96	2
HLD	55	0	2	288
HLD	55	192	5	96
TAP	56	0	3
TAP	56	0	4
TAP	56	96	0
TAP	56	96	7
BRK	56	192	1
BRK	56	192	6
TAP	57	0	5
TAP	57	96	4
TAP	57	192	3
TAP	57	288	2
TAP	58	0	1
TAP	58	0	3
TAP	58	96	2
TAP	58	192	4
TAP	58	192	6
TAP	58	288	5
TAP	59	0	2
TAP	59	96	3
TAP	59	192	4
TAP	59	288	5
TAP	60	0	4
TAP	60	0	6
TAP	60	96	5
TAP	60	192	1
TAP	60	192	3
TAP	60	288	2
TAP	61	0	5
TAP	61	96	4
TAP	61	192	3
TAP	61	288	2
TAP	62	0	1
TAP	62	0	4
TAP	62	96	2
TAP	62	96	3
TAP	62	192	3
TAP	62	192	6
TAP	62	288	4
TAP	62	288	5
TAP	63	0	2
TAP	63	96	2
TAP	63	96	3
TAP	63	192	5
TAP	63	288	4
TAP	63	288	5
TAP	64	0	1
TAP	64	0	3
TAP	64	96	4
TAP	64	96	6
TAP	64	192	0
TAP	64	192	7
TAP	65	0	4
STR	65	0	5
SI_	65	0	5	96	48	7
TAP	65	192	4
STR	65	192	5
SI_	65	192	5	96	48	7
STR	66	0	2
SI_	66	0	2	96	48	0
TAP	66	0	3
STR	66	192	2
SI_	66	192	2	96	48	0
TAP	66	192	3
TAP	67	0	4
STR	67	0	5
SI_	67	0	5	96	48	7
TAP	67	192	4
STR	67	192	5
SI_	67	192	5	96	48	7
STR	68	0	2
SI_	68	0	2	96	48	0
TAP	68	0	3
STR	68	192	2
SI_	68	192	2	96	48	0
TAP	68	192	3
STR	69	0	4
SI_	69	0	4	96	48	7
TAP	69	0	5
STR	69	192	4
SI_	69	192	4	96	48	7
TAP	69	192	5
TAP	70	0	2
STR	70	0	3
SI_	70	0	3	96	48	0
TAP	70	192	2
STR	70	192	3
SI_	70	192	3	96	48	0
STR	71	0	4
SUR	71	0	4	96	192	3
STR	71	0	5
SCR	71	0	5	96	192	3
STR	72	0	2
SCL	72	0	2	96	192	4
STR	72	0	3
SUL	72	0	3	96	192	4
TAP	73	0	1
TAP	73	0	6
TAP	74	288	2
TAP	74	288	5
TAP	75	0	4
TAP	75	96	5
TAP	75	96	7
TAP	75	192	3
TAP	75	288	0
TAP	75	288	2
TAP	76	0	5
TAP	76	48	5
TAP	76	96	4
TAP	76	192	2
STR	76	192	6
SCR	76	192	6	96	48	1
TAP	77	0	3
TAP	77	96	0
TAP	77	96	2
TAP	77	192	4
TAP	77	288	5
TAP	77	288	7
TAP	78	0	2
TAP	78	48	2
TAP	78	96	3
STR	78	192	1
SCL	78	192	1	96	48	6
TAP	78	192	5
TAP	79	0	5
TAP	79	96	1
TAP	79	96	7
TAP	79	192	2
TAP	79	288	0
TAP	79	288	6
TAP	80	0	3
TAP	80	0	4
HLD	80	96	1	96
HLD	80	96	6	96
BRK	80	240	0
BRK	80	240	7
BRK	80	288	0
BRK	80	288	7
TAP	81	0	4
TAP	81	96	5
TAP	81	96	7
TAP	81	192	3
TAP	81	288	0
TAP	81	288	2
TAP	82	0	5
TAP	82	48	5
TAP	82	96	4
TAP	82	192	2
STR	82	192	6
SCR	82	192	6	96	48	1
TAP	83	0	3
TAP	83	96	0
TAP	83	96	2
TAP	83	192	4
TAP	83	288	5
TAP	83	288	7
TAP	84	0	2
TAP	84	48	2
TAP	84	96	3
STR	84	192	1
SCL	84	192	1	96	48	6
TAP	84	192	5
TAP	85	0	4
TAP	85	0	5
TAP	85	96	3
TAP	85	96	6
TAP	85	192	2
TAP	85	192	7
TAP	85	288	0
TAP	85	288	1
TAP	86	0	2
TAP	86	0	3
STR	86	96	4
SCL	86	96	4	96	96	1
STR	86	96	5
SCR	86	96	5	96	96	0
HLD	87	0	5	288
HLD	87	192	2	96
TAP	88	0	3
TAP	88	0	4
TAP	88	96	0
TAP	88	96	7
BRK	88	192	1
BRK	88	192	6
STR	89	0	0
SI_	89	0	0	96	48	5
TAP	89	0	7
TAP	89	192	0
STR	89	192	7
SI_	89	192	7	96	48	2
STR	90	0	0
SCL	90	0	0	96	48	5
STR	90	0	1
SCR	90	0	1	96	48	4
TAP	90	192	2
TAP	90	192	7
TAP	90	288	0
TAP	90	288	5
TAP	91	0	0
STR	91	0	7
SI_	91	0	7	96	48	2
STR	91	192	0
SI_	91	192	0	96	48	5
TAP	91	192	7
STR	92	0	6
SCL	92	0	6	96	48	3
STR	92	0	7
SCR	92	0	7	96	48	2
TAP	92	192	0
TAP	92	192	5
TAP	92	288	2
TAP	92	288	7
STR	93	0	0
SI_	93	0	0	96	48	4
TAP	93	0	7
TAP	93	192	0
STR	93	192	7
SI_	93	192	7	96	48	3
STR	94	0	0
SUR	94	0	0	96	48	5
STR	94	0	1
SCR	94	0	1	96	48	4
TAP	94	192	2
TAP	94	192	7
TAP	94	288	0
TAP	94	288	5
TAP	95	0	0
STR	95	0	7
SI_	95	0	7	96	48	3
STR	95	192	0
SI_	95	192	0	96	48	4
TAP	95	192	7
STR	96	0	6
SCL	96	0	6	96	48	3
STR	96	0	7
SUL	96	0	7	96	48	2
TAP	96	192	0
TAP	96	192	5
TAP	96	288	2
TAP	96	288	7
TAP	97	0	0
TAP	97	0	1
TAP	97	48	0
TAP	97	48	1
TAP	97	144	6
TAP	97	144	7
TAP	97	192	6
TAP	97	192	7
TAP	97	288	3
TAP	97	288	4
TAP	97	336	3
TAP	97	336	4
BRK	98	96	1
BRK	98	96	6
BRK	98	144	1
BRK	98	144	6

T_REC_TAP	378
T_REC_BRK	22
T_REC_XTP	0
T_REC_HLD	33
T_REC_XHO	0
T_REC_STR	68
T_REC_BST	0
T_REC_XST	0
T_REC_TTP	0
T_REC_THO	0
T_REC_SLD	68
T_REC_ALL	569
T_NUM_TAP	446
T_NUM_BRK	22
T_NUM_HLD	33
T_NUM_SLD	68
T_NUM_ALL	569
T_JUDGE_TAP	468
T_JUDGE_HLD	108
T_JUDGE_SLD	68
T_JUDGE_ALL	644
TTM_EACHPAIRS	181
TTM_SCR_TAP	223000
TTM_SCR_BRK	57200
TTM_SCR_HLD	33000
TTM_SCR_SLD	102000
TTM_SCR_ALL	415200
TTM_SCR_S	400650
TTM_SCR_SS	413000
TTM_RAT_ACV	10053

