VERSION	0.00.00	1.03.00
FES_MODE	0
BPM_DEF	190.000	190.000	190.000	190.000
MET_DEF	4	4
RESOLUTION	384
CLK_DEF	384
COMPATIBLE_CODE	MA2

BPM	0	0	190.000

HLD	1	0	5	192
TAP	1	192	4
HLD	2	0	2	192
TAP	2	192	3
HLD	3	0	5	192
TAP	3	192	4
TAP	4	0	2
TAP	4	0	3
TAP	4	96	2
TAP	4	96	3
TAP	4	192	1
TAP	4	192	4
TAP	5	0	5
TAP	5	96	5
TAP	5	192	4
TAP	5	288	4
TAP	6	0	2
TAP	6	0	3
TAP	6	96	2
TAP	6	96	3
TAP	6	192	1
TAP	6	192	4
TAP	7	0	2
TAP	7	96	2
TAP	7	192	3
TAP	7	288	3
TAP	8	0	4
TAP	8	0	5
TAP	8	96	4
TAP	8	96	5
TAP	8	192	3
TAP	8	192	6
TAP	9	0	5
TAP	9	96	5
TAP	9	192	4
TAP	9	288	4
TAP	10	0	2
TAP	10	0	3
TAP	10	96	2
TAP	10	96	3
TAP	10	192	1
TAP	10	192	4
TAP	11	0	2
TAP	11	96	2
TAP	11	192	3
TAP	11	288	3
TAP	12	0	3
TAP	12	0	4
TAP	12	96	2
TAP	12	96	5
TAP	12	192	1
TAP	12	192	6
TAP	13	0	7
TAP	13	96	7
TAP	13	192	6
TAP	13	288	6
TAP	14	0	5
TAP	14	96	5
TAP	14	192	4
TAP	14	192	5
TAP	14	288	4
TAP	14	288	5
TAP	15	0	2
TAP	15	96	2
TAP	15	192	3
TAP	15	288	3
TAP	16	0	2
TAP	16	0	3
TAP	16	96	2
TAP	16	96	3
TAP	16	192	1
TAP	16	192	4
TAP	17	0	0
TAP	17	96	0
TAP	17	192	1
TAP	17	288	1
TAP	18	0	2
TAP	18	96	2
TAP	18	192	2
TAP	18	192	3
TAP	18	288	2
TAP	18	288	3
TAP	19	0	5
TAP	19	96	5
TAP	19	192	4
TAP	19	288	4
TAP	20	0	4
TAP	20	0	5
TAP	20	96	4
TAP	20	96	5
TAP	20	192	3
TAP	20	192	6
TAP	21	0	4
TAP	21	96	4
TAP	21	192	5
TAP	21	288	5
TAP	22	0	6
TAP	22	96	6
TAP	22	192	6
TAP	22	192	7
TAP	22	288	6
TAP	22	288	7
TAP	23	0	1
TAP	23	96	1
TAP	23	192	0
TAP	23	288	0
TAP	24	0	0
TAP	24	0	1
TAP	24	96	0
TAP	24	96	1
TAP	24	192	2
TAP	24	192	7
TAP	25	0	3
TAP	25	96	3
TAP	25	192	2
TAP	25	288	2
TAP	26	0	1
TAP	26	96	1
TAP	26	192	0
TAP	26	192	1
TAP	26	288	0
TAP	26	288	1
TAP	27	0	6
TAP	27	96	6
TAP	27	192	7
TAP	27	288	7
TAP	28	0	6
TAP	28	0	7
TAP	28	96	6
TAP	28	96	7
TAP	28	192	0
TAP	28	192	5
HLD	29	0	2	192
TAP	29	192	3
HLD	30	0	5	192
TAP	30	192	4
TAP	31	0	0
TAP	31	0	7
TAP	31	96	1
TAP	31	96	6
TAP	31	192	2
TAP	31	192	5
STR	31	288	3
SCL	31	288	3	96	192	0
STR	31	288	4
SCR	31	288	4	96	192	7
HLD	33	0	5	192
TAP	33	192	4
HLD	34	0	2	192
TAP	34	192	3
TAP	35	0	4
TAP	35	96	4
TAP	35	192	5
TAP	35	288	5
TAP	36	0	6
TAP	36	0	7
TAP	36	96	6
TAP	36	96	7
TAP	36	192	0
TAP	36	192	5
TAP	37	0	3
TAP	37	96	3
TAP	37	192	2
TAP	37	288	2
TAP	38	0	0
TAP	38	0	1
TAP	38	96	0
TAP	38	96	1
TAP	38	192	2
TAP	38	192	7
HLD	39	0	0	288
HLD	39	192	7	96
TAP	40	0	0
TAP	40	0	7
TAP	40	96	0
TAP	40	96	7
BRK	40	192	1
BRK	40	192	6
TAP	41	0	5
TAP	41	96	4
TAP	41	96	5
TAP	41	192	2
TAP	41	288	2
TAP	41	288	3
TAP	42	0	0
TAP	42	0	1
TAP	42	96	2
TAP	42	96	7
TAP	42	192	3
TAP	42	192	6
TAP	43	0	2
TAP	43	96	2
TAP	43	96	3
TAP	43	192	5
TAP	43	288	4
TAP	43	288	5
TAP	44	0	6
TAP	44	0	7
TAP	44	96	0
TAP	44	96	5
TAP	44	192	1
TAP	44	192	4
TAP	45	0	6
TAP	45	96	6
TAP	45	96	7
TAP	45	192	1
TAP	45	288	0
TAP	45	288	1
TAP	46	0	2
TAP	46	0	3
TAP	46	96	1
TAP	46	96	4
TAP	46	192	0
TAP	46	192	5
STR	47	0	7
SI_	47	0	7	96	96	3
STR	47	192	0
SI_	47	192	0	96	96	4
HLD	48	0	7	192
TAP	48	192	0
TAP	48	288	1
TAP	48	288	6
TAP	49	0	2
TAP	49	96	2
TAP	49	96	3
TAP	49	192	5
TAP	49	288	4
TAP	49	288	5
TAP	50	0	6
TAP	50	0	7
TAP	50	96	0
TAP	50	96	5
TAP	50	192	1
TAP	50	192	4
TAP	51	0	5
TAP	51	96	4
TAP	51	96	5
TAP	51	192	2
TAP	51	288	2
TAP	51	288	3
TAP	52	0	0
TAP	52	0	1
TAP	52	96	2
TAP	52	96	7
TAP	52	192	3
TAP	52	192	6
TAP	53	0	1
TAP	53	96	0
TAP	53	96	1
TAP	53	192	6
TAP	53	288	6
TAP	53	288	7
TAP	54	0	4
TAP	54	0	5
TAP	54	96	3
TAP	54	96	6
TAP	54	192	2
TAP	54	192	7
HLD	55	0	3	288
HLD	55	192	4	96
TAP	56	0	3
TAP	56	0	4
TAP	56	96	2
TAP	56	96	5
TAP	56	192	1
TAP	56	192	6
HLD	57	0	5	384
HLD	58	0	4	384
HLD	59	0	3	384
TAP	60	0	2
TAP	60	192	1
TAP	60	192	4
HLD	61	0	2	384
HLD	62	0	3	384
HLD	63	0	4	384
TAP	64	0	5
TAP	64	192	3
TAP	64	192	6
TAP	65	0	5
TAP	65	96	5
TAP	65	192	4
TAP	65	192	5
TAP	65	288	4
TAP	65	288	5
TAP	66	0	2
TAP	66	96	2
TAP	66	192	2
TAP	66	192	3
TAP	66	288	2
TAP	66	288	3
TAP	67	0	5
TAP	67	96	5
TAP	67	192	4
TAP	67	192	5
TAP	67	288	3
TAP	67	288	6
TAP	68	0	2
TAP	68	96	2
TAP	68	192	2
TAP	68	192	3
TAP	68	288	1
TAP	68	288	4
HLD	69	0	4	96
HLD	69	0	5	96
HLD	69	192	4	96
HLD	69	192	5	96
HLD	70	0	2	96
HLD	70	0	3	96
HLD	70	192	2	96
HLD	70	192	3	96
STR	71	0	3
SCL	71	0	3	96	192	0
STR	71	0	4
SCR	71	0	4	96	192	7
STR	72	0	0
SCR	72	0	0	96	192	3
STR	72	0	7
SCL	72	0	7	96	192	4
HLD	73	0	3	384
HLD	73	0	4	384
TAP	75	0	6
TAP	75	96	6
TAP	75	96	7
TAP	75	192	1
TAP	75	288	0
TAP	75	288	1
TAP	76	0	2
TAP	76	0	3
TAP	76	96	1
TAP	76	96	4
TAP	76	192	0
TAP	76	192	5
TAP	77	0	2
TAP	77	96	2
TAP	77	96	3
TAP	77	192	5
TAP	77	288	4
TAP	77	288	5
TAP	78	0	6
TAP	78	0	7
TAP	78	96	0
TAP	78	96	5
TAP	78	192	1
TAP	78	192	4
STR	79	0	3
SI_	79	0	3	96	96	0
STR	79	192	4
SI_	79	192	4	96	96	7
HLD	80	0	3	192
TAP	80	192	4
TAP	80	288	2
TAP	80	288	5
TAP	81	0	6
TAP	81	96	6
TAP	81	96	7
TAP	81	192	1
TAP	81	288	0
TAP	81	288	1
TAP	82	0	2
TAP	82	0	3
TAP	82	96	1
TAP	82	96	4
TAP	82	192	0
TAP	82	192	5
TAP	83	0	1
TAP	83	96	0
TAP	83	96	1
TAP	83	192	6
TAP	83	288	6
TAP	83	288	7
TAP	84	0	4
TAP	84	0	5
TAP	84	96	3
TAP	84	96	6
TAP	84	192	2
TAP	84	192	7
TAP	85	0	5
TAP	85	96	4
TAP	85	96	5
TAP	85	192	2
TAP	85	288	2
TAP	85	288	3
TAP	86	0	0
TAP	86	0	1
TAP	86	96	2
TAP	86	96	7
TAP	86	192	3
TAP	86	192	6
HLD	87	0	7	288
HLD	87	192	0	96
TAP	88	0	0
TAP	88	0	7
TAP	88	96	1
TAP	88	96	6
TAP	88	192	2
TAP	88	192	5
TAP	89	0	5
TAP	89	96	4
TAP	89	96	6
TAP	89	192	2
TAP	89	288	1
TAP	89	288	3
TAP	90	0	0
TAP	90	0	7
TAP	90	96	1
TAP	90	96	6
TAP	90	192	2
TAP	90	192	5
TAP	90	288	3
TAP	90	288	4
TAP	91	0	2
TAP	91	96	1
TAP	91	96	3
TAP	91	192	5
TAP	91	288	4
TAP	91	288	6
TAP	92	0	0
TAP	92	0	7
TAP	92	96	1
TAP	92	96	6
TAP	92	192	2
TAP	92	192	5
TAP	92	288	3
TAP	92	288	4
TAP	93	0	6
TAP	93	96	5
TAP	93	96	7
TAP	93	192	1
TAP	93	288	0
TAP	93	288	2
TAP	94	0	3
TAP	94	0	4
TAP	94	96	2
TAP	94	96	5
TAP	94	192	1
TAP	94	192	6
TAP	94	288	0
TAP	94	288	7
TAP	95	0	1
TAP	95	96	0
TAP	95	96	2
TAP	95	192	6
TAP	95	288	5
TAP	95	288	7
TAP	96	0	3
TAP	96	0	4
TAP	96	96	2
TAP	96	96	5
TAP	96	192	1
TAP	96	192	6
STR	96	288	0
SCR	96	288	0	96	192	3
STR	96	288	7
SCL	96	288	7	96	192	4
TAP	98	0	1
TAP	98	0	6
BRK	98	96	1
BRK	98	96	6

T_REC_TAP	399
T_REC_BRK	4
T_REC_XTP	0
T_REC_HLD	31
T_REC_XHO	0
T_REC_STR	12
T_REC_BST	0
T_REC_XST	0
T_REC_TTP	0
T_REC_THO	0
T_REC_SLD	12
T_REC_ALL	458
T_NUM_TAP	411
T_NUM_BRK	4
T_NUM_HLD	31
T_NUM_SLD	12
T_NUM_ALL	458
T_JUDGE_TAP	415
T_JUDGE_HLD	140
T_JUDGE_SLD	12
T_JUDGE_ALL	567
TTM_EACHPAIRS	154
TTM_SCR_TAP	205500
TTM_SCR_BRK	10400
TTM_SCR_HLD	31000
TTM_SCR_SLD	18000
TTM_SCR_ALL	264900
TTM_SCR_S	256600
TTM_SCR_SS	264500
TTM_RAT_ACV	10015

