VERSION	0.00.00	1.03.00
FES_MODE	0
BPM_DEF	190.000	190.000	190.000	190.000
MET_DEF	4	4
RESOLUTION	384
CLK_DEF	384
COMPATIBLE_CODE	MA2

BPM	0	0	190.000

TAP	5	0	2
TAP	5	192	2
TAP	6	0	2
TAP	6	0	3
TAP	7	0	5
TAP	7	192	5
TAP	8	0	4
TAP	8	0	5
TAP	9	0	2
TAP	9	192	2
TAP	10	0	2
TAP	10	0	3
TAP	11	0	5
TAP	11	192	5
TAP	12	0	4
TAP	12	0	5
TAP	13	0	3
TAP	13	192	3
TAP	14	0	2
TAP	14	0	3
TAP	14	192	2
TAP	14	192	3
TAP	15	0	1
TAP	15	192	1
TAP	16	0	0
TAP	16	0	7
TAP	17	0	7
TAP	17	192	7
TAP	18	0	6
TAP	18	0	7
TAP	18	192	6
TAP	18	192	7
TAP	19	0	5
TAP	19	192	5
TAP	20	0	3
TAP	20	0	4
TAP	21	0	4
TAP	21	192	4
TAP	22	0	4
TAP	22	0	5
TAP	22	192	4
TAP	22	192	5
TAP	23	0	6
TAP	23	192	6
TAP	24	0	0
TAP	24	0	7
TAP	25	0	0
TAP	25	192	0
TAP	26	0	0
TAP	26	0	1
TAP	26	192	0
TAP	26	192	1
TAP	27	0	2
TAP	27	192	2
TAP	28	0	3
TAP	28	0	4
STR	29	0	5
SI_	29	0	5	96	288	2
STR	31	0	1
SI_	31	0	1	96	288	6
STR	33	0	7
SI_	33	0	7	96	288	4
STR	35	0	3
SI_	35	0	3	96	288	0
TAP	37	0	7
TAP	37	192	7
TAP	38	0	0
TAP	38	192	0
TAP	39	0	0
TAP	39	0	7
TAP	39	192	0
TAP	39	192	7
TAP	40	0	0
TAP	40	0	7
TAP	40	96	0
TAP	40	96	7
BRK	40	192	0
BRK	40	192	7
TAP	41	0	7
TAP	41	96	7
TAP	41	192	0
TAP	41	192	7
TAP	42	0	6
TAP	42	96	6
TAP	42	192	6
TAP	42	192	7
TAP	43	0	5
TAP	43	96	5
TAP	43	192	4
TAP	43	192	5
TAP	44	0	4
TAP	44	96	4
TAP	44	192	3
TAP	44	192	4
TAP	45	0	2
TAP	45	96	2
TAP	45	192	2
TAP	45	192	3
TAP	46	0	1
TAP	46	96	1
TAP	46	192	0
TAP	46	192	1
TAP	47	0	0
TAP	47	0	7
TAP	47	192	0
TAP	47	192	7
TAP	48	0	1
TAP	48	0	6
TAP	48	192	1
TAP	48	192	6
TAP	49	0	0
TAP	49	96	0
TAP	49	192	0
TAP	49	192	7
TAP	50	0	1
TAP	50	96	1
TAP	50	192	0
TAP	50	192	1
TAP	51	0	2
TAP	51	96	2
TAP	51	192	2
TAP	51	192	3
TAP	52	0	3
TAP	52	96	3
TAP	52	192	3
TAP	52	192	4
TAP	53	0	5
TAP	53	96	5
TAP	53	192	4
TAP	53	192	5
TAP	54	0	6
TAP	54	96	6
TAP	54	192	6
TAP	54	192	7
TAP	55	0	0
TAP	55	0	7
TAP	55	192	0
TAP	55	192	7
TAP	56	0	1
TAP	56	0	6
BRK	56	192	1
BRK	56	192	6
STR	57	0	0
SI_	57	0	0	96	288	3
STR	59	0	2
SI_	59	0	2	96	288	5
STR	61	0	4
SI_	61	0	4	96	288	7
STR	63	0	6
SI_	63	0	6	96	288	1
TAP	65	0	0
TAP	65	0	1
TAP	65	192	0
TAP	65	192	1
TAP	66	0	0
TAP	66	0	1
TAP	66	96	0
TAP	66	96	1
TAP	66	192	0
TAP	66	192	1
TAP	67	0	6
TAP	67	0	7
TAP	67	192	6
TAP	67	192	7
TAP	68	0	6
TAP	68	0	7
TAP	68	96	6
TAP	68	96	7
TAP	68	192	6
TAP	68	192	7
TAP	69	0	4
TAP	69	0	5
TAP	69	192	4
TAP	69	192	5
TAP	70	0	4
TAP	70	0	5
TAP	70	96	4
TAP	70	96	5
TAP	70	192	4
TAP	70	192	5
TAP	71	0	2
TAP	71	0	3
TAP	71	192	2
TAP	71	192	3
TAP	72	0	2
TAP	72	0	3
TAP	72	96	2
TAP	72	96	3
TAP	72	192	2
TAP	72	192	3
HLD	73	0	4	384
HLD	73	0	5	384
TAP	75	0	6
TAP	75	96	6
TAP	75	192	6
TAP	75	192	7
TAP	76	0	7
TAP	76	96	7
TAP	76	192	0
TAP	76	192	7
TAP	77	0	1
TAP	77	96	1
TAP	77	192	0
TAP	77	192	1
TAP	78	0	2
TAP	78	96	2
TAP	78	192	2
TAP	78	192	3
TAP	79	0	3
TAP	79	0	4
TAP	79	192	3
TAP	79	192	4
TAP	80	0	2
TAP	80	0	5
TAP	80	192	2
TAP	80	192	5
TAP	81	0	3
TAP	81	96	3
TAP	81	192	3
TAP	81	192	4
TAP	82	0	5
TAP	82	96	5
TAP	82	192	4
TAP	82	192	5
TAP	83	0	6
TAP	83	96	6
TAP	83	192	6
TAP	83	192	7
TAP	84	0	7
TAP	84	96	7
TAP	84	192	0
TAP	84	192	7
TAP	85	0	1
TAP	85	96	1
TAP	85	192	0
TAP	85	192	1
TAP	86	0	2
TAP	86	96	2
TAP	86	192	2
TAP	86	192	3
TAP	87	0	3
TAP	87	0	4
TAP	87	192	3
TAP	87	192	4
TAP	88	0	2
TAP	88	0	5
BRK	88	192	1
BRK	88	192	6
TAP	89	0	7
TAP	89	96	7
TAP	89	192	6
TAP	89	288	6
TAP	90	0	5
TAP	90	96	5
TAP	90	192	4
TAP	91	0	3
TAP	91	96	3
TAP	91	192	2
TAP	91	288	2
TAP	92	0	1
TAP	92	96	1
TAP	92	192	0
TAP	93	0	0
TAP	93	96	0
TAP	93	192	1
TAP	93	288	1
TAP	94	0	2
TAP	94	96	2
TAP	94	192	3
TAP	95	0	4
TAP	95	96	4
TAP	95	192	5
TAP	95	288	5
TAP	96	0	6
TAP	96	96	6
TAP	96	192	7
TAP	97	0	0
TAP	97	0	7
TAP	97	192	0
TAP	97	192	7
TAP	97	288	0
TAP	97	288	7
STR	98	0	0
SI_	98	0	0	96	288	3
STR	98	0	7
SI_	98	0	7	96	288	4

T_REC_TAP	258
T_REC_BRK	6
T_REC_XTP	0
T_REC_HLD	2
T_REC_XHO	0
T_REC_STR	10
T_REC_BST	0
T_REC_XST	0
T_REC_TTP	0
T_REC_THO	0
T_REC_SLD	10
T_REC_ALL	286
T_NUM_TAP	268
T_NUM_BRK	6
T_NUM_HLD	2
T_NUM_SLD	10
T_NUM_ALL	286
T_JUDGE_TAP	274
T_JUDGE_HLD	16
T_JUDGE_SLD	10
T_JUDGE_ALL	300
TTM_EACHPAIRS	84
TTM_SCR_TAP	134000
TTM_SCR_BRK	15600
TTM_SCR_HLD	2000
TTM_SCR_SLD	15000
TTM_SCR_ALL	166600
TTM_SCR_S	161050
TTM_SCR_SS	166000
TTM_RAT_ACV	10036

