VERSION	0.00.00	1.03.00
FES_MODE	0
BPM_DEF	180.000	180.000	180.000	180.000
MET_DEF	4	4
RESOLUTION	384
CLK_DEF	384
COMPATIBLE_CODE	MA2

BPM	0	0	180.000

STR	1	0	4
SI_	1	0	4	96	48	2
STR	1	0	5
SI_	1	0	5	96	48	0
STR	1	192	2
SI_	1	192	2	96	48	7
STR	1	192	3
SI_	1	192	3	96	48	5
STR	2	0	4
SI_	2	0	4	96	48	1
STR	2	0	5
SI_	2	0	5	96	48	7
STR	2	192	2
SI_	2	192	2	96	48	0
STR	2	192	3
SI_	2	192	3	96	48	6
TAP	3	0	6
TAP	3	0	7
TAP	3	96	0
TAP	3	96	1
TAP	3	192	4
TAP	3	192	5
TAP	3	288	2
TAP	3	288	3
TAP	4	0	2
TAP	4	0	5
TAP	4	48	2
TAP	4	48	5
TAP	4	96	2
TAP	4	96	5
TAP	4	192	3
TAP	4	288	3
STR	5	0	2
SUR	5	0	2	96	48	7
STR	5	0	3
SCR	5	0	3	96	48	6
STR	5	192	4
SCL	5	192	4	96	48	1
STR	5	192	5
SUL	5	192	5	96	48	0
TAP	6	0	2
TAP	6	48	2
TAP	6	96	5
HLD	6	144	5	96
STR	6	240	4
SCL	6	240	4	96	48	1
HLD	6	336	6	96
STR	7	48	7
SCR	7	48	7	96	48	2
HLD	7	144	5	96
TAP	7	240	4
STR	7	288	4
SCL	7	288	4	96	48	1
STR	8	0	7
SCL	8	0	7	96	48	4
TAP	8	96	2
HLD	8	144	2	96
TAP	8	240	3
TAP	8	288	1
TAP	8	288	4
STR	9	0	6
SCL	9	0	6	96	48	4
STR	9	0	7
SUL	9	0	7	96	48	3
STR	9	192	0
SUR	9	192	0	96	48	4
STR	9	192	1
SCR	9	192	1	96	48	3
TAP	10	0	5
TAP	10	48	5
TAP	10	96	2
HLD	10	144	2	96
TAP	10	240	3
STR	10	288	3
SCR	10	288	3	96	48	6
STR	11	0	0
SI_	11	0	0	96	48	4
STR	11	96	7
SI_	11	96	7	96	48	3
STR	11	192	2
SI_	11	192	2	96	48	6
TAP	11	288	7
TAP	11	336	7
TAP	12	48	0
TAP	12	48	1
TAP	12	96	2
TAP	12	96	7
TAP	12	192	2
TAP	12	240	1
TAP	12	288	0
STR	13	0	4
SCL	13	0	4	96	48	1
STR	13	0	5
SUL	13	0	5	96	48	0
STR	13	192	2
SUR	13	192	2	96	48	7
STR	13	192	3
SCR	13	192	3	96	48	6
TAP	14	0	5
TAP	14	48	5
TAP	14	96	2
HLD	14	144	2	96
STR	14	240	3
SCR	14	240	3	96	48	6
HLD	14	336	1	96
STR	15	48	0
SCL	15	48	0	96	48	5
HLD	15	144	2	96
TAP	15	240	3
STR	15	288	3
SCR	15	288	3	96	48	6
STR	16	0	0
SCR	16	0	0	96	48	3
TAP	16	96	5
HLD	16	144	5	96
TAP	16	240	4
TAP	16	288	3
TAP	16	288	6
STR	17	0	0
SUR	17	0	0	96	48	4
STR	17	0	1
SCR	17	0	1	96	48	3
STR	17	192	6
SCL	17	192	6	96	48	4
STR	17	192	7
SUL	17	192	7	96	48	3
TAP	18	0	2
TAP	18	48	2
TAP	18	96	5
HLD	18	144	5	96
TAP	18	240	4
STR	18	288	4
SCL	18	288	4	96	48	1
STR	19	0	7
SI_	19	0	7	96	48	3
STR	19	96	0
SI_	19	96	0	96	48	4
STR	19	192	5
SI_	19	192	5	96	48	1
TAP	19	288	0
TAP	19	336	0
TAP	20	48	6
TAP	20	48	7
TAP	20	96	0
TAP	20	96	5
TAP	20	192	3
TAP	20	192	4
TAP	20	288	1
TAP	20	288	6
STR	21	0	1
SI_	21	0	1	96	48	5
TAP	21	0	4
TAP	21	96	0
TAP	21	192	3
STR	21	192	6
SI_	21	192	6	96	48	2
TAP	21	288	7
STR	22	0	1
SI_	22	0	1	96	48	4
STR	22	96	7
SI_	22	96	7	96	48	4
TAP	22	192	0
TAP	22	288	5
TAP	22	288	7
TAP	23	0	3
STR	23	0	6
SI_	23	0	6	96	48	2
TAP	23	96	7
STR	23	192	1
SI_	23	192	1	96	48	5
TAP	23	192	4
TAP	23	288	0
STR	24	0	6
SI_	24	0	6	96	48	3
STR	24	96	0
SI_	24	96	0	96	48	3
TAP	24	192	7
TAP	24	288	0
TAP	24	288	2
TAP	25	0	2
TAP	25	0	5
TAP	25	96	0
TAP	25	96	7
TAP	25	192	3
TAP	25	192	4
TAP	25	240	3
TAP	25	240	4
TAP	25	288	3
TAP	25	288	4
TAP	26	0	2
TAP	26	0	3
TAP	26	48	2
TAP	26	48	3
TAP	26	144	0
TAP	26	144	7
TAP	26	240	4
TAP	26	240	5
TAP	26	288	4
TAP	26	288	5
TAP	27	0	1
TAP	27	0	3
TAP	27	48	1
TAP	27	48	3
TAP	27	96	1
TAP	27	96	3
TAP	27	192	4
TAP	27	192	6
TAP	27	240	4
TAP	27	240	6
TAP	27	288	4
TAP	27	288	6
TAP	28	0	2
TAP	28	0	5
TAP	28	48	2
TAP	28	48	5
TAP	28	96	3
TAP	28	144	4
STR	28	192	2
SI_	28	192	2	96	48	7
STR	28	192	5
SI_	28	192	5	96	48	0
STR	29	0	1
SI_	29	0	1	96	48	5
TAP	29	0	4
STR	29	96	6
SI_	29	96	6	96	48	2
STR	29	192	0
SI_	29	192	0	96	48	3
STR	29	288	5
SUL	29	288	5	96	96	3
TAP	30	192	0
TAP	30	192	1
TAP	30	240	0
TAP	30	240	1
TAP	30	288	0
TAP	30	288	1
TAP	31	0	3
STR	31	0	6
SI_	31	0	6	96	48	2
STR	31	96	1
SI_	31	96	1	96	48	5
STR	31	192	7
SI_	31	192	7	96	48	4
STR	31	288	2
SUR	31	288	2	96	96	4
TAP	32	192	6
TAP	32	192	7
TAP	32	240	6
TAP	32	240	7
TAP	32	288	6
TAP	32	288	7
TAP	33	0	0
TAP	33	0	1
TAP	33	96	3
TAP	33	96	6
TAP	33	192	4
TAP	33	192	5
TAP	33	240	4
TAP	33	240	5
TAP	33	288	4
TAP	33	288	5
TAP	34	0	2
TAP	34	0	3
TAP	34	48	2
TAP	34	48	3
HLD	34	144	0	96
TAP	34	144	5
TAP	34	240	2
TAP	34	288	2
TAP	35	0	4
TAP	35	0	6
TAP	35	48	4
TAP	35	48	6
TAP	35	96	4
TAP	35	96	6
TAP	35	192	2
TAP	35	192	3
TAP	35	240	1
TAP	35	240	4
TAP	35	336	0
TAP	35	336	7
TAP	36	48	5
TAP	36	96	4
TAP	36	144	3
TAP	36	192	2
BRK	36	288	0
BRK	36	288	7
STR	37	0	0
SUL	37	0	0	96	96	2
STR	37	0	7
SLL	37	0	7	96	96	3
TAP	37	240	1
TAP	37	240	6
TAP	37	336	2
TAP	37	336	7
TAP	38	48	4
TAP	38	48	5
TAP	38	96	3
TAP	38	96	6
TAP	38	192	1
TAP	38	192	4
TAP	38	288	0
TAP	38	288	7
STR	39	0	0
SLR	39	0	0	96	96	4
STR	39	0	7
SUR	39	0	7	96	96	5
TAP	39	240	1
TAP	39	240	6
TAP	39	336	0
TAP	39	336	5
TAP	40	48	2
TAP	40	48	3
TAP	40	96	1
TAP	40	96	4
TAP	40	192	3
TAP	40	192	6
TAP	40	288	0
TAP	40	288	7
STR	41	0	5
SI_	41	0	5	96	48	0
STR	41	96	3
SI_	41	96	3	96	48	0
TAP	41	192	4
TAP	41	288	1
STR	42	0	2
SI_	42	0	2	96	48	7
STR	42	96	4
SI_	42	96	4	96	48	7
TAP	42	192	3
TAP	42	288	6
TAP	43	0	4
TAP	43	0	5
TAP	43	48	4
TAP	43	48	5
TAP	43	96	4
TAP	43	96	5
TAP	43	192	2
TAP	43	192	3
TAP	43	240	2
TAP	43	240	3
TAP	43	288	2
TAP	43	288	3
TAP	44	0	0
TAP	44	0	7
TAP	44	48	1
TAP	44	48	6
TAP	44	144	3
TAP	44	144	4
STR	44	192	3
SCL	44	192	3	96	48	0
STR	44	192	4
SCR	44	192	4	96	48	7
STR	45	0	1
SUR	45	0	1	96	96	4
TAP	45	144	6
STR	45	192	6
SUL	45	192	6	96	96	3
TAP	45	336	2
STR	46	0	2
SUL	46	0	2	96	96	7
TAP	46	144	5
STR	46	192	5
SUR	46	192	5	96	96	0
TAP	46	336	1
STR	47	0	1
SCR	47	0	1	96	48	4
STR	47	96	5
SI_	47	96	5	96	48	1
STR	47	192	2
SI_	47	192	2	96	48	7
STR	47	288	4
SCR	47	288	4	96	192	3
TAP	48	288	1
TAP	48	288	6
TAP	49	0	1
HLD	49	0	3	72
HLD	49	72	5	72
TAP	49	144	7
TAP	49	192	7
TAP	49	288	0
TAP	49	288	2
HLD	50	0	4	72
TAP	50	0	6
HLD	50	72	2	72
TAP	50	144	0
TAP	50	192	0
TAP	50	288	5
TAP	50	288	7
STR	51	0	1
SI_	51	0	1	96	48	4
STR	51	96	6
SI_	51	96	6	96	48	3
TAP	51	192	1
TAP	51	240	1
TAP	51	288	6
TAP	51	336	6
BRK	52	0	0
BRK	52	0	7
BRK	52	96	1
BRK	52	96	6
BRK	52	192	2
BRK	52	192	5
BRK	52	288	3
BRK	52	288	4
STR	53	0	5
SUR	53	0	5	96	96	0
TAP	53	144	2
STR	53	192	2
SUL	53	192	2	96	96	7
TAP	53	336	6
STR	54	0	6
SCL	54	0	6	96	48	3
STR	54	96	2
SI_	54	96	2	96	48	6
STR	54	192	5
SI_	54	192	5	96	48	0
STR	54	288	1
SI_	54	288	1	96	48	4
STR	55	0	7
SI_	55	0	7	96	48	3
TAP	55	96	1
TAP	55	144	1
STR	55	192	1
SCR	55	192	1	96	48	4
STR	55	288	7
SCL	55	288	7	96	192	0
TAP	56	288	2
TAP	56	288	5
STR	57	0	6
SUL	57	0	6	96	96	3
TAP	57	144	0
TAP	57	192	0
TAP	57	288	4
TAP	57	288	5
STR	58	0	1
SUR	58	0	1	96	96	4
TAP	58	144	7
TAP	58	192	7
TAP	58	288	2
TAP	58	288	3
TAP	59	48	6
STR	59	96	6
SI_	59	96	6	96	48	3
STR	59	192	1
SI_	59	192	1	96	48	4
STR	59	288	7
SI_	59	288	7	96	48	3
STR	60	0	0
SCR	60	0	0	96	192	7
STR	61	0	2
SCR	61	0	2	96	48	4
STR	61	0	5
SI_	61	0	5	96	48	0
STR	61	192	2
SI_	61	192	2	96	48	7
STR	61	192	5
SCL	61	192	5	96	48	3
TAP	62	0	1
TAP	62	48	2
TAP	62	96	3
HLD	62	144	5	96
STR	62	240	4
SCL	62	240	4	96	48	1
TAP	62	288	5
HLD	62	336	6	96
STR	63	48	7
SCR	63	48	7	96	48	2
TAP	63	96	6
TAP	63	144	5
TAP	63	240	3
TAP	63	288	4
TAP	63	336	4
TAP	64	0	2
STR	64	48	2
SI_	64	48	2	96	48	6
TAP	64	96	5
STR	64	144	5
SI_	64	144	5	96	48	0
TAP	64	240	3
TAP	64	288	3
STR	65	0	2
SI_	65	0	2	96	48	7
STR	65	0	5
SCL	65	0	5	96	48	3
STR	65	192	2
SCR	65	192	2	96	48	4
STR	65	192	5
SI_	65	192	5	96	48	0
TAP	66	0	6
TAP	66	48	5
TAP	66	96	4
HLD	66	144	2	96
STR	66	240	3
SCR	66	240	3	96	48	6
TAP	66	288	2
TAP	66	336	1
STR	67	0	0
SCR	67	0	0	96	48	3
STR	67	96	5
SI_	67	96	5	96	48	1
STR	67	192	2
SI_	67	192	2	96	48	7
TAP	67	288	4
TAP	67	336	4
TAP	68	48	0
TAP	68	48	1
TAP	68	96	0
TAP	68	96	1
TAP	68	192	2
TAP	68	192	7
TAP	68	240	2
TAP	68	240	7
TAP	68	288	4
TAP	68	288	5
BST	69	0	3
SCR	69	0	3	96	48	5
BST	69	0	7
SI_	69	0	7	96	48	2
STR	69	192	0
SI_	69	192	0	96	48	5
STR	69	192	4
SCL	69	192	4	96	48	2
TAP	70	0	0
TAP	70	0	6
TAP	70	48	0
TAP	70	48	6
TAP	70	96	1
TAP	70	96	7
TAP	70	144	1
TAP	70	144	7
TAP	70	240	4
TAP	70	240	5
TAP	70	288	3
TAP	70	288	6
TAP	70	336	2
TAP	70	336	7
TAP	71	48	2
TAP	71	48	3
TAP	71	96	1
TAP	71	96	4
TAP	71	144	0
TAP	71	144	5
TAP	71	240	0
TAP	71	240	7
TAP	71	288	0
TAP	71	288	7
STR	72	0	3
SCL	72	0	3	96	144	5
STR	72	0	4
SUL	72	0	4	96	144	3
STR	73	0	0
SI_	73	0	0	96	48	5
STR	73	0	4
SCL	73	0	4	96	48	2
STR	73	192	3
SCR	73	192	3	96	48	5
STR	73	192	7
SI_	73	192	7	96	48	2
TAP	74	0	1
TAP	74	0	7
TAP	74	48	1
TAP	74	48	7
TAP	74	96	0
TAP	74	96	6
TAP	74	144	0
TAP	74	144	6
TAP	74	240	3
TAP	74	240	4
TAP	74	288	2
TAP	74	288	5
TAP	74	336	1
TAP	74	336	6
STR	75	0	7
SCL	75	0	7	96	48	4
STR	75	96	2
SI_	75	96	2	96	48	6
STR	75	192	5
SI_	75	192	5	96	48	0
TAP	75	288	3
TAP	75	336	3
TAP	76	48	6
TAP	76	48	7
TAP	76	96	6
TAP	76	96	7
TAP	76	192	0
TAP	76	192	5
TAP	76	240	0
TAP	76	240	5
TAP	76	288	2
TAP	76	288	3
STR	77	0	3
SUL	77	0	3	96	48	7
TAP	77	0	5
STR	77	96	4
SCR	77	96	4	96	48	7
STR	77	192	2
SCL	77	192	2	96	48	7
STR	77	288	3
SUR	77	288	3	96	48	7
STR	78	0	1
SXR	78	0	1	96	144	6
TAP	78	192	4
TAP	78	240	4
TAP	78	288	4
TAP	79	0	2
STR	79	0	4
SUR	79	0	4	96	48	0
STR	79	96	3
SCL	79	96	3	96	48	0
STR	79	192	5
SCR	79	192	5	96	48	0
STR	79	288	4
SUL	79	288	4	96	48	0
STR	80	0	6
SXL	80	0	6	96	144	1
TAP	80	192	3
TAP	80	240	3
TAP	80	288	3
TAP	81	0	6
TAP	81	0	7
TAP	81	96	1
TAP	81	96	4
TAP	81	192	2
TAP	81	192	3
TAP	81	240	2
TAP	81	240	3
TAP	81	288	2
TAP	81	288	3
TAP	82	0	4
TAP	82	0	5
TAP	82	48	4
TAP	82	48	5
TAP	82	144	2
HLD	82	144	7	96
TAP	82	240	5
TAP	82	288	5
TAP	83	0	1
TAP	83	0	3
TAP	83	48	1
TAP	83	48	3
TAP	83	96	1
TAP	83	96	3
TAP	83	192	4
TAP	83	192	5
TAP	83	240	3
TAP	83	240	6
TAP	83	336	0
TAP	83	336	7
TAP	84	48	2
TAP	84	96	3
TAP	84	144	4
TAP	84	192	5
BST	84	288	0
SCR	84	288	0	96	576	7
BST	84	288	7
SCL	84	288	7	96	576	0

T_REC_TAP	360
T_REC_BRK	10
T_REC_XTP	0
T_REC_HLD	19
T_REC_XHO	0
T_REC_STR	130
T_REC_BST	4
T_REC_XST	0
T_REC_TTP	0
T_REC_THO	0
T_REC_SLD	134
T_REC_ALL	657
T_NUM_TAP	490
T_NUM_BRK	14
T_NUM_HLD	19
T_NUM_SLD	134
T_NUM_ALL	657
T_JUDGE_TAP	504
T_JUDGE_HLD	38
T_JUDGE_SLD	134
T_JUDGE_ALL	676
TTM_EACHPAIRS	166
TTM_SCR_TAP	245000
TTM_SCR_BRK	36400
TTM_SCR_HLD	19000
TTM_SCR_SLD	201000
TTM_SCR_ALL	501400
TTM_SCR_S	485000
TTM_SCR_SS	500000
TTM_RAT_ACV	10028

