VERSION	0.00.00	1.03.00
FES_MODE	0
BPM_DEF	180.000	180.000	180.000	180.000
MET_DEF	4	4
RESOLUTION	384
CLK_DEF	384
COMPATIBLE_CODE	MA2

BPM	0	0	180.000

TAP	4	192	1
TAP	4	288	1
TAP	5	0	2
TAP	5	0	3
TAP	5	96	2
TAP	5	96	3
TAP	5	192	4
TAP	5	192	5
STR	5	288	4
SI_	5	288	4	96	96	0
TAP	5	288	5
TAP	6	192	1
TAP	6	192	7
TAP	6	288	1
TAP	6	288	7
TAP	7	0	2
TAP	7	96	3
TAP	7	192	4
TAP	7	288	4
TAP	7	288	5
TAP	8	0	5
TAP	8	96	4
TAP	8	192	3
TAP	8	288	2
TAP	8	288	3
TAP	9	0	4
TAP	9	0	5
TAP	9	96	4
TAP	9	96	5
TAP	9	192	2
TAP	9	192	3
TAP	9	288	2
STR	9	288	3
SI_	9	288	3	96	96	7
TAP	10	192	0
TAP	10	192	6
TAP	10	288	0
TAP	10	288	6
TAP	11	0	5
TAP	11	96	4
TAP	11	192	3
TAP	11	288	2
TAP	11	288	3
TAP	12	0	1
STR	12	96	2
SCR	12	96	2	96	96	5
TAP	13	0	6
TAP	13	0	7
TAP	13	96	6
TAP	13	96	7
TAP	13	192	0
TAP	13	192	1
STR	13	288	0
SI_	13	288	0	96	96	5
STR	13	288	1
SI_	13	288	1	96	96	4
TAP	14	192	3
TAP	14	192	6
TAP	14	288	3
TAP	14	288	6
TAP	15	0	5
TAP	15	96	6
TAP	15	192	7
TAP	15	288	0
TAP	15	288	1
TAP	16	0	2
TAP	16	96	1
TAP	16	192	0
TAP	16	288	6
TAP	16	288	7
TAP	17	0	0
TAP	17	0	1
TAP	17	96	0
TAP	17	96	1
TAP	17	192	6
TAP	17	192	7
STR	17	288	6
SI_	17	288	6	96	96	3
STR	17	288	7
SI_	17	288	7	96	96	2
TAP	18	192	1
TAP	18	192	4
TAP	18	288	1
TAP	18	288	4
TAP	19	0	2
TAP	19	96	1
TAP	19	192	0
TAP	19	288	6
TAP	19	288	7
TAP	20	0	5
STR	20	96	6
SI_	20	96	6	96	96	2
TAP	21	0	2
TAP	21	96	1
TAP	21	96	3
TAP	21	192	5
STR	21	288	4
SI_	21	288	4	96	96	0
TAP	21	288	6
TAP	22	192	0
TAP	23	0	1
TAP	23	96	0
TAP	23	96	1
TAP	23	192	6
TAP	23	288	6
TAP	23	288	7
TAP	24	0	0
STR	24	96	0
SI_	24	96	0	96	96	4
STR	24	96	7
SI_	24	96	7	96	96	3
TAP	25	0	3
TAP	25	0	4
TAP	25	96	2
TAP	25	96	3
TAP	25	192	1
TAP	25	240	1
TAP	25	288	7
TAP	26	0	0
TAP	26	48	7
TAP	26	96	0
STR	26	144	7
SI_	26	144	7	96	96	3
TAP	27	0	2
TAP	27	48	2
TAP	27	96	2
TAP	27	192	5
TAP	27	240	5
TAP	27	288	5
TAP	28	0	3
TAP	28	48	4
TAP	28	96	3
TAP	28	144	4
TAP	28	192	3
TAP	28	288	1
TAP	28	288	6
TAP	29	0	0
TAP	29	0	7
TAP	29	96	0
TAP	29	96	7
HLD	29	192	1	96
TAP	29	288	3
HLD	30	0	6	96
TAP	30	96	4
TAP	30	192	0
TAP	30	192	7
TAP	30	288	0
TAP	30	288	7
STR	31	0	1
SI_	31	0	1	96	48	6
STR	31	192	5
SI_	31	192	5	96	48	2
STR	32	0	1
SI_	32	0	1	96	48	6
STR	32	192	5
SI_	32	192	5	96	48	2
TAP	33	0	1
TAP	33	96	0
TAP	33	96	7
TAP	33	192	6
TAP	33	240	6
TAP	33	288	0
TAP	34	0	7
TAP	34	48	0
TAP	34	96	7
STR	34	144	0
SI_	34	144	0	96	96	4
TAP	35	0	5
TAP	35	48	5
TAP	35	96	5
TAP	35	192	3
TAP	35	240	4
TAP	35	288	3
TAP	35	336	4
TAP	36	48	2
TAP	36	96	2
TAP	36	144	4
TAP	36	192	3
TAP	36	288	3
TAP	36	288	4
HLD	37	0	6	288
HLD	37	192	7	96
STR	37	336	6
SI_	37	336	6	96	72	3
STR	37	336	7
SI_	37	336	7	96	72	2
TAP	38	192	1
TAP	38	192	4
TAP	38	288	3
TAP	38	288	6
TAP	39	0	4
TAP	39	0	5
TAP	39	96	3
TAP	39	96	4
TAP	39	192	2
TAP	39	192	3
TAP	39	288	0
TAP	39	288	1
STR	39	336	0
SI_	39	336	0	96	72	5
STR	39	336	1
SI_	39	336	1	96	72	4
TAP	40	192	3
TAP	40	192	6
TAP	40	288	1
TAP	40	288	4
TAP	41	0	2
TAP	41	0	3
TAP	41	96	4
TAP	41	192	2
TAP	41	192	3
TAP	41	288	1
TAP	42	0	4
TAP	42	0	5
TAP	42	96	3
TAP	42	192	4
TAP	42	192	5
STR	42	288	6
SXL	42	288	6	96	288	1
TAP	44	144	0
TAP	44	192	7
TAP	44	240	0
TAP	44	288	7
BST	45	0	0
SI_	45	0	0	96	48	2
BST	45	0	4
SI_	45	0	4	96	48	6
STR	45	192	3
SI_	45	192	3	96	48	1
STR	45	192	7
SI_	45	192	7	96	48	5
STR	46	0	0
SI_	46	0	0	96	48	2
STR	46	0	4
SI_	46	0	4	96	48	6
STR	46	192	3
SI_	46	192	3	96	48	1
STR	46	192	7
SI_	46	192	7	96	48	5
TAP	47	0	0
TAP	47	0	4
TAP	47	96	1
TAP	47	96	5
TAP	47	192	2
TAP	47	192	6
STR	47	288	3
SCL	47	288	3	96	96	0
STR	47	288	7
SCL	47	288	7	96	96	4
TAP	48	192	5
TAP	48	192	7
TAP	48	288	0
TAP	48	288	2
TAP	49	0	3
TAP	49	96	4
TAP	49	192	5
TAP	49	288	0
TAP	49	288	6
TAP	50	0	4
TAP	50	96	3
TAP	50	192	2
TAP	50	288	1
TAP	50	288	7
TAP	51	0	6
TAP	51	48	6
TAP	51	96	0
TAP	51	192	1
TAP	51	240	1
TAP	51	288	7
HLD	52	0	2	96
HLD	52	96	3	96
HLD	52	192	4	96
TAP	52	288	5
BST	53	0	3
SI_	53	0	3	96	48	0
BST	53	0	7
SI_	53	0	7	96	48	4
STR	53	192	0
SI_	53	192	0	96	48	3
STR	53	192	4
SI_	53	192	4	96	48	7
STR	54	0	3
SI_	54	0	3	96	48	0
STR	54	0	7
SI_	54	0	7	96	48	4
STR	54	192	0
SI_	54	192	0	96	48	3
STR	54	192	4
SI_	54	192	4	96	48	7
TAP	55	0	3
TAP	55	0	7
TAP	55	96	2
TAP	55	96	6
TAP	55	192	1
TAP	55	192	5
STR	55	288	0
SCR	55	288	0	96	96	3
STR	55	288	4
SCR	55	288	4	96	96	7
TAP	56	192	0
TAP	56	192	2
TAP	56	288	5
TAP	56	288	7
HLD	57	0	1	192
TAP	57	144	0
TAP	57	192	0
TAP	57	288	3
TAP	57	288	4
HLD	58	0	6	192
TAP	58	144	7
TAP	58	192	7
TAP	58	288	3
TAP	58	288	4
HLD	59	0	5	96
HLD	59	96	4	96
HLD	59	192	3	96
STR	59	288	2
SXR	59	288	2	96	192	5
BRK	60	288	7
TAP	61	0	4
TAP	61	0	5
TAP	61	96	3
TAP	61	96	4
TAP	61	192	2
TAP	61	192	3
STR	61	288	1
SI_	61	288	1	96	96	6
STR	61	288	2
SI_	61	288	2	96	96	5
TAP	62	192	4
TAP	62	192	7
TAP	62	288	4
TAP	62	288	7
TAP	63	0	6
TAP	63	96	2
TAP	63	96	3
TAP	63	192	1
TAP	63	288	4
TAP	63	288	5
TAP	64	0	7
TAP	64	96	1
TAP	64	96	3
TAP	64	192	0
TAP	64	288	4
TAP	64	288	6
TAP	65	0	2
TAP	65	0	3
TAP	65	96	3
TAP	65	96	4
TAP	65	192	4
TAP	65	192	5
STR	65	288	5
SI_	65	288	5	96	96	2
STR	65	288	6
SI_	65	288	6	96	96	1
TAP	66	192	0
TAP	66	192	3
TAP	66	288	0
TAP	66	288	3
TAP	67	0	1
TAP	67	96	4
TAP	67	96	5
TAP	67	192	6
TAP	67	288	2
TAP	67	288	3
TAP	68	0	1
TAP	68	96	4
STR	68	96	5
SUR	68	96	5	96	96	2
TAP	69	0	0
TAP	69	0	1
TAP	69	96	2
TAP	69	96	7
TAP	69	192	0
TAP	69	192	5
STR	69	288	6
SI_	69	288	6	96	96	3
STR	69	288	7
SI_	69	288	7	96	96	2
TAP	70	192	0
TAP	70	192	5
STR	70	288	0
SUR	70	288	0	96	48	4
TAP	70	288	5
STR	71	96	6
SUL	71	96	6	96	48	2
TAP	71	288	1
STR	72	0	2
SCL	72	0	2	96	192	5
STR	72	0	3
SUL	72	0	3	96	192	4
TAP	73	0	6
TAP	73	0	7
TAP	73	96	0
TAP	73	96	5
TAP	73	192	2
TAP	73	192	7
STR	73	288	0
SI_	73	288	0	96	96	5
STR	73	288	1
SI_	73	288	1	96	96	4
TAP	74	192	2
TAP	74	192	7
TAP	74	288	2
STR	74	288	7
SUL	74	288	7	96	48	3
STR	75	96	1
SUR	75	96	1	96	48	5
TAP	75	288	6
TAP	76	0	2
TAP	76	0	5
STR	76	96	0
SCR	76	96	0	96	96	3
STR	76	96	7
SCL	76	96	7	96	96	4
HLD	77	0	2	96
TAP	77	96	3
HLD	77	192	5	96
TAP	77	288	4
HLD	78	0	1	96
TAP	78	96	3
HLD	78	192	6	96
TAP	78	288	4
HLD	79	0	2	96
TAP	79	96	0
HLD	79	192	5	96
TAP	79	288	7
TAP	80	0	1
TAP	80	0	6
TAP	80	96	2
TAP	80	96	5
TAP	80	192	3
TAP	80	192	4
TAP	80	288	1
TAP	80	288	6
TAP	81	0	0
TAP	81	0	7
TAP	81	96	0
TAP	81	96	7
TAP	81	192	2
TAP	81	192	3
TAP	81	240	2
TAP	81	240	3
TAP	81	288	2
TAP	81	288	3
TAP	82	0	4
TAP	82	0	5
TAP	82	48	4
TAP	82	48	5
BRK	82	144	0
BRK	82	144	7
TAP	83	0	2
TAP	83	48	3
TAP	83	96	2
TAP	83	192	5
TAP	83	240	4
TAP	83	288	5
TAP	83	336	4
TAP	84	48	7
TAP	84	96	0
TAP	84	144	1
STR	84	192	2
SXL	84	192	2	96	480	0

T_REC_TAP	320
T_REC_BRK	3
T_REC_XTP	0
T_REC_HLD	18
T_REC_XHO	0
T_REC_STR	57
T_REC_BST	4
T_REC_XST	0
T_REC_TTP	0
T_REC_THO	0
T_REC_SLD	61
T_REC_ALL	463
T_NUM_TAP	377
T_NUM_BRK	7
T_NUM_HLD	18
T_NUM_SLD	61
T_NUM_ALL	463
T_JUDGE_TAP	384
T_JUDGE_HLD	44
T_JUDGE_SLD	61
T_JUDGE_ALL	489
TTM_EACHPAIRS	128
TTM_SCR_TAP	188500
TTM_SCR_BRK	18200
TTM_SCR_HLD	18000
TTM_SCR_SLD	91500
TTM_SCR_ALL	316200
TTM_SCR_S	306050
TTM_SCR_SS	315500
TTM_RAT_ACV	10022

