VERSION	0.00.00	1.03.00
FES_MODE	0
BPM_DEF	180.000	180.000	180.000	180.000
MET_DEF	4	4
RESOLUTION	384
CLK_DEF	384
COMPATIBLE_CODE	MA2

BPM	0	0	180.000

TAP	5	0	2
TAP	5	96	2
TAP	5	192	3
TAP	5	288	3
STR	6	0	2
SCR	6	0	2	96	144	5
TAP	7	0	5
TAP	7	96	4
TAP	7	192	3
TAP	7	192	6
TAP	8	0	2
TAP	8	96	3
TAP	8	192	1
TAP	8	192	4
TAP	9	0	2
TAP	9	96	1
TAP	9	192	0
TAP	9	288	7
TAP	10	0	6
TAP	10	96	5
TAP	10	192	3
TAP	10	192	4
TAP	11	0	2
TAP	11	96	2
TAP	11	192	3
TAP	11	288	3
TAP	12	0	1
TAP	12	0	4
TAP	12	96	1
TAP	12	96	4
TAP	12	192	0
TAP	12	192	7
TAP	13	0	5
TAP	13	96	5
TAP	13	192	4
TAP	13	288	4
STR	14	0	5
SCL	14	0	5	96	144	2
TAP	15	0	2
TAP	15	96	3
TAP	15	192	1
TAP	15	192	4
TAP	16	0	5
TAP	16	96	4
TAP	16	192	3
TAP	16	192	6
TAP	17	0	5
TAP	17	96	6
TAP	17	192	7
TAP	17	288	0
TAP	18	0	1
TAP	18	96	2
TAP	18	192	3
TAP	18	192	4
TAP	19	0	5
TAP	19	96	5
TAP	19	192	4
TAP	19	288	4
TAP	20	0	3
TAP	20	0	6
TAP	20	96	3
TAP	20	96	6
TAP	20	192	0
TAP	20	192	7
TAP	21	0	2
TAP	21	96	2
TAP	21	192	3
TAP	21	288	3
TAP	22	0	2
TAP	22	96	3
TAP	22	192	1
TAP	22	192	4
TAP	23	0	5
TAP	23	96	5
TAP	23	192	4
TAP	23	288	4
TAP	24	0	5
TAP	24	96	4
TAP	24	192	3
TAP	24	192	6
TAP	25	0	0
TAP	25	0	1
TAP	25	192	6
TAP	25	192	7
TAP	26	0	0
TAP	26	0	7
TAP	26	96	0
TAP	26	96	7
TAP	26	192	1
TAP	26	192	6
TAP	27	0	3
TAP	27	96	3
TAP	27	192	4
TAP	27	288	4
TAP	28	0	3
TAP	28	0	4
TAP	28	96	2
TAP	28	96	5
TAP	28	192	1
TAP	28	192	6
TAP	29	0	5
TAP	29	96	5
TAP	29	192	4
TAP	29	288	4
TAP	30	0	5
TAP	30	96	4
TAP	30	192	3
TAP	30	192	6
TAP	31	0	2
TAP	31	96	2
TAP	31	192	3
TAP	31	288	3
TAP	32	0	2
TAP	32	96	3
TAP	32	192	1
TAP	32	192	4
TAP	33	0	6
TAP	33	0	7
TAP	33	192	0
TAP	33	192	1
TAP	34	0	0
TAP	34	0	7
TAP	34	96	0
TAP	34	96	7
TAP	34	192	1
TAP	34	192	6
TAP	35	0	4
TAP	35	96	4
TAP	35	192	3
TAP	35	288	3
STR	36	0	3
SCL	36	0	3	96	144	0
STR	36	0	4
SCR	36	0	4	96	144	7
HLD	37	0	1	192
HLD	37	192	2	192
TAP	38	0	3
TAP	38	96	3
TAP	38	192	2
TAP	38	192	4
HLD	39	0	6	192
HLD	39	192	5	192
TAP	40	0	4
TAP	40	96	4
TAP	40	192	3
TAP	40	192	5
TAP	41	0	2
TAP	41	96	2
TAP	41	192	2
TAP	41	192	3
TAP	41	288	2
TAP	41	288	3
TAP	42	0	5
TAP	42	96	5
TAP	42	192	4
TAP	42	192	5
TAP	42	288	4
TAP	42	288	5
TAP	43	0	3
TAP	43	0	6
TAP	43	192	1
TAP	43	192	4
TAP	44	0	0
TAP	44	0	7
TAP	44	96	0
TAP	44	96	7
BRK	44	192	1
BRK	44	192	6
TAP	45	0	5
TAP	45	96	4
TAP	45	96	5
TAP	45	192	2
TAP	45	288	2
TAP	45	288	3
TAP	46	0	6
TAP	46	96	6
TAP	46	96	7
TAP	46	192	1
TAP	46	288	0
TAP	46	288	1
TAP	47	0	6
TAP	47	0	7
TAP	47	96	0
TAP	47	96	5
TAP	47	192	1
TAP	47	192	4
STR	47	288	2
SCL	47	288	2	96	192	5
TAP	47	288	3
HLD	49	0	5	192
TAP	49	192	4
TAP	49	288	3
TAP	49	288	6
HLD	50	0	2	192
TAP	50	192	3
TAP	50	288	1
TAP	50	288	4
HLD	51	0	6	96
HLD	51	0	7	96
HLD	51	192	0	96
HLD	51	192	1	96
TAP	52	0	0
TAP	52	0	7
TAP	52	96	1
TAP	52	96	6
TAP	52	192	2
TAP	52	192	5
TAP	53	0	2
TAP	53	96	2
TAP	53	96	3
TAP	53	192	5
TAP	53	288	4
TAP	53	288	5
TAP	54	0	1
TAP	54	96	0
TAP	54	96	1
TAP	54	192	6
TAP	54	288	6
TAP	54	288	7
TAP	55	0	0
TAP	55	0	1
TAP	55	96	2
TAP	55	96	7
TAP	55	192	3
TAP	55	192	6
TAP	55	288	4
STR	55	288	5
SCR	55	288	5	96	192	2
HLD	57	0	2	192
TAP	57	192	3
TAP	57	288	1
TAP	57	288	4
HLD	58	0	5	192
TAP	58	192	4
TAP	58	288	3
TAP	58	288	6
HLD	59	0	0	96
HLD	59	0	1	96
HLD	59	192	6	96
HLD	59	192	7	96
TAP	60	0	0
TAP	60	0	7
TAP	60	96	1
TAP	60	96	6
BRK	60	192	2
BRK	60	192	5
TAP	61	0	1
TAP	61	96	0
TAP	61	96	1
TAP	61	192	6
TAP	61	288	6
TAP	61	288	7
TAP	62	0	0
TAP	62	0	1
TAP	62	96	0
TAP	62	96	1
TAP	62	192	3
TAP	62	192	6
TAP	63	0	5
TAP	63	96	4
TAP	63	96	5
TAP	63	192	2
TAP	63	288	2
TAP	63	288	3
STR	64	0	3
SCL	64	0	3	96	144	0
STR	64	0	4
SCR	64	0	4	96	144	7
TAP	65	0	6
TAP	65	96	6
TAP	65	96	7
TAP	65	192	1
TAP	65	288	0
TAP	65	288	1
TAP	66	0	6
TAP	66	0	7
TAP	66	96	6
TAP	66	96	7
TAP	66	192	1
TAP	66	192	4
TAP	67	0	2
TAP	67	96	2
TAP	67	96	3
TAP	67	192	5
TAP	67	288	4
TAP	67	288	5
TAP	68	0	3
TAP	68	0	4
TAP	68	96	3
TAP	68	96	4
BRK	68	192	1
BRK	68	192	6
TAP	69	0	0
TAP	69	0	1
TAP	69	96	0
TAP	69	96	1
TAP	69	192	6
TAP	69	192	7
TAP	69	288	6
TAP	69	288	7
TAP	70	0	4
TAP	70	0	5
TAP	70	96	4
TAP	70	96	5
TAP	70	192	2
TAP	70	192	7
TAP	71	0	1
TAP	71	96	0
TAP	71	96	1
TAP	71	192	6
TAP	71	288	6
TAP	71	288	7
STR	72	0	0
SCR	72	0	0	96	144	3
STR	72	0	7
SCL	72	0	7	96	144	4
TAP	73	0	6
TAP	73	0	7
TAP	73	96	6
TAP	73	96	7
TAP	73	192	0
TAP	73	192	1
TAP	73	288	0
TAP	73	288	1
TAP	74	0	2
TAP	74	0	3
TAP	74	96	2
TAP	74	96	3
TAP	74	192	0
TAP	74	192	5
TAP	75	0	6
TAP	75	96	6
TAP	75	96	7
TAP	75	192	1
TAP	75	288	0
TAP	75	288	1
TAP	76	0	3
TAP	76	0	4
TAP	76	96	3
TAP	76	96	4
TAP	76	192	1
TAP	76	192	6
TAP	77	0	6
TAP	77	96	6
TAP	77	192	7
TAP	77	288	7
TAP	78	0	6
TAP	78	96	7
TAP	78	192	0
TAP	78	192	5
TAP	79	0	1
TAP	79	96	1
TAP	79	192	0
TAP	79	288	0
TAP	80	0	1
TAP	80	96	0
TAP	80	192	2
TAP	80	192	7
TAP	81	0	4
TAP	81	0	5
TAP	81	192	2
TAP	81	192	3
TAP	82	0	3
TAP	82	0	4
TAP	82	96	3
TAP	82	96	4
TAP	82	192	1
TAP	82	192	6
TAP	83	0	1
TAP	83	96	0
TAP	83	96	1
TAP	83	192	6
TAP	83	288	6
TAP	83	288	7
TAP	84	0	0
TAP	84	0	7
TAP	84	96	1
TAP	84	96	6
TAP	84	192	2
TAP	84	192	5
BRK	84	288	3
BRK	84	288	4

T_REC_TAP	338
T_REC_BRK	8
T_REC_XTP	0
T_REC_HLD	16
T_REC_XHO	0
T_REC_STR	10
T_REC_BST	0
T_REC_XST	0
T_REC_TTP	0
T_REC_THO	0
T_REC_SLD	10
T_REC_ALL	382
T_NUM_TAP	348
T_NUM_BRK	8
T_NUM_HLD	16
T_NUM_SLD	10
T_NUM_ALL	382
T_JUDGE_TAP	356
T_JUDGE_HLD	48
T_JUDGE_SLD	10
T_JUDGE_ALL	414
TTM_EACHPAIRS	124
TTM_SCR_TAP	174000
TTM_SCR_BRK	20800
TTM_SCR_HLD	16000
TTM_SCR_SLD	15000
TTM_SCR_ALL	225800
TTM_SCR_S	218250
TTM_SCR_SS	225000
TTM_RAT_ACV	10035

