VERSION	0.00.00	1.03.00
FES_MODE	0
BPM_DEF	180.000	180.000	180.000	180.000
MET_DEF	4	4
RESOLUTION	384
CLK_DEF	384
COMPATIBLE_CODE	MA2

BPM	0	0	180.000

TAP	5	0	0
TAP	5	96	0
TAP	5	192	0
TAP	6	0	1
TAP	6	96	1
TAP	6	192	1
TAP	7	0	2
TAP	7	96	2
TAP	7	192	2
TAP	8	0	3
TAP	8	96	4
TAP	8	192	3
TAP	9	0	4
TAP	9	96	4
TAP	9	192	4
TAP	10	0	5
TAP	10	96	5
TAP	10	192	5
TAP	11	0	6
TAP	11	96	6
TAP	11	192	6
TAP	12	0	0
TAP	12	0	7
TAP	13	0	7
TAP	13	96	7
TAP	13	192	7
TAP	14	0	6
TAP	14	96	6
TAP	14	192	6
TAP	15	0	5
TAP	15	96	5
TAP	15	192	5
TAP	16	0	4
TAP	16	96	3
TAP	16	192	4
TAP	17	0	3
TAP	17	96	3
TAP	17	192	3
TAP	18	0	2
TAP	18	96	2
TAP	18	192	2
TAP	19	0	1
TAP	19	96	1
TAP	19	192	1
TAP	20	0	0
TAP	20	0	7
TAP	21	0	0
TAP	21	192	0
HLD	22	0	7	192
TAP	23	0	6
TAP	23	192	6
TAP	24	0	5
TAP	24	192	5
HLD	25	0	4	192
HLD	26	0	3	192
TAP	27	0	4
TAP	27	192	5
TAP	28	0	6
TAP	28	96	6
TAP	28	192	6
TAP	29	0	7
TAP	29	192	7
TAP	30	0	0
TAP	30	192	0
TAP	31	0	1
TAP	31	192	1
TAP	32	0	2
TAP	32	192	2
HLD	33	0	3	192
HLD	34	0	4	192
TAP	35	0	3
TAP	35	192	2
TAP	36	0	1
TAP	36	96	1
BRK	36	192	1
STR	37	0	0
SI_	37	0	0	96	288	4
TAP	39	0	5
TAP	39	192	5
TAP	40	0	6
TAP	40	192	6
STR	41	0	7
SI_	41	0	7	96	288	3
TAP	43	0	2
TAP	43	192	2
TAP	44	0	1
BRK	44	192	0
BRK	44	192	1
TAP	45	0	7
TAP	45	96	7
TAP	45	192	7
TAP	46	0	6
TAP	46	96	6
TAP	46	192	6
TAP	47	0	5
TAP	47	96	5
TAP	47	192	4
TAP	47	288	4
HLD	48	0	3	192
TAP	49	0	2
TAP	49	0	3
TAP	49	192	2
TAP	49	192	4
TAP	50	0	4
TAP	50	0	5
TAP	50	192	3
TAP	50	192	5
TAP	51	0	2
TAP	51	192	2
TAP	52	0	1
TAP	52	96	1
TAP	52	192	1
TAP	53	0	0
TAP	53	96	0
TAP	53	192	0
TAP	54	0	1
TAP	54	96	1
TAP	54	192	1
TAP	55	0	2
TAP	55	96	2
TAP	55	192	3
TAP	55	288	3
HLD	56	0	4	192
TAP	57	0	4
TAP	57	0	5
TAP	57	192	3
TAP	57	192	5
TAP	58	0	2
TAP	58	0	3
TAP	58	192	2
TAP	58	192	4
STR	59	0	3
SI_	59	0	3	96	288	0
STR	59	0	4
SI_	59	0	4	96	288	7
TAP	61	0	6
TAP	61	96	6
TAP	61	192	6
TAP	61	192	7
TAP	62	0	1
TAP	62	96	1
TAP	62	192	0
TAP	62	192	1
TAP	63	0	7
TAP	63	96	0
TAP	63	192	7
TAP	64	0	0
TAP	64	0	7
TAP	64	96	0
TAP	64	96	7
TAP	64	192	1
TAP	64	192	6
TAP	65	0	2
TAP	65	96	2
TAP	65	192	2
TAP	65	192	3
TAP	66	0	5
TAP	66	96	5
TAP	66	192	4
TAP	66	192	5
TAP	67	0	3
TAP	67	96	4
TAP	67	192	3
TAP	68	0	3
TAP	68	0	4
TAP	68	96	3
TAP	68	96	4
TAP	68	192	2
TAP	68	192	5
TAP	69	0	1
TAP	69	96	1
TAP	69	192	0
TAP	69	288	0
TAP	70	0	7
TAP	70	96	7
TAP	70	192	6
TAP	70	192	7
TAP	71	0	5
TAP	71	96	5
TAP	71	192	4
TAP	71	288	4
TAP	72	0	3
TAP	72	96	3
BRK	72	192	4
TAP	73	0	6
TAP	73	96	6
TAP	73	192	7
TAP	73	288	7
TAP	74	0	0
TAP	74	96	0
TAP	74	192	0
TAP	74	192	1
TAP	75	0	2
TAP	75	96	2
TAP	75	192	3
TAP	75	288	3
HLD	76	0	4	192
TAP	77	0	3
TAP	77	192	3
HLD	78	0	2	192
TAP	79	0	1
TAP	79	192	1
TAP	80	0	0
TAP	80	192	0
HLD	81	0	6	192
HLD	81	0	7	192
TAP	82	0	4
TAP	82	0	5
TAP	82	192	4
TAP	82	192	5
TAP	83	0	3
TAP	83	96	3
TAP	83	192	4
TAP	83	288	4
TAP	84	0	3
TAP	84	96	4
TAP	84	192	3
BRK	84	288	4

T_REC_TAP	194
T_REC_BRK	5
T_REC_XTP	0
T_REC_HLD	11
T_REC_XHO	0
T_REC_STR	4
T_REC_BST	0
T_REC_XST	0
T_REC_TTP	0
T_REC_THO	0
T_REC_SLD	4
T_REC_ALL	218
T_NUM_TAP	198
T_NUM_BRK	5
T_NUM_HLD	11
T_NUM_SLD	4
T_NUM_ALL	218
T_JUDGE_TAP	203
T_JUDGE_HLD	44
T_JUDGE_SLD	4
T_JUDGE_ALL	251
TTM_EACHPAIRS	27
TTM_SCR_TAP	99000
TTM_SCR_BRK	13000
TTM_SCR_HLD	11000
TTM_SCR_SLD	6000
TTM_SCR_ALL	129000
TTM_SCR_S	124650
TTM_SCR_SS	128500
TTM_RAT_ACV	10038

