VERSION	0.00.00	1.03.00
FES_MODE	0
BPM_DEF	194.000	194.000	194.000	194.000
MET_DEF	4	4
RESOLUTION	384
CLK_DEF	384
COMPATIBLE_CODE	MA2

BPM	0	0	194.000
MET	0	0	4	4

TAP	2	0	0
TAP	2	0	7
TAP	2	96	4
TAP	2	96	5
TAP	2	144	2
TAP	2	144	3
TAP	2	240	1
TAP	2	240	6
TAP	2	336	3
TAP	2	336	4
TAP	3	48	0
TAP	3	48	6
STR	3	144	1
SI_	3	144	1	96	48	5
STR	3	144	7
SI_	3	144	7	96	48	3
TAP	3	192	1
TAP	3	192	7
TAP	4	0	4
TAP	4	96	4
TAP	4	192	0
TAP	4	192	1
TAP	4	288	0
TAP	4	288	1
TAP	5	0	3
TAP	5	96	3
TAP	5	192	6
TAP	5	240	7
TAP	5	288	6
TAP	5	336	7
TAP	6	0	4
TAP	6	96	4
TAP	6	192	0
TAP	6	192	1
TAP	6	288	0
TAP	6	288	1
TAP	7	0	3
TAP	7	96	3
TAP	7	192	6
TAP	7	240	7
TAP	7	288	6
TAP	7	336	7
STR	8	0	0
SXL	8	0	0	96	96	0
TAP	8	0	5
TAP	8	96	0
TAP	8	96	5
TAP	8	192	4
TAP	8	288	4
TAP	9	0	2
STR	9	0	7
SXR	9	0	7	96	96	7
TAP	9	96	2
TAP	9	96	7
TAP	9	192	3
TAP	9	288	3
TAP	10	0	0
BRK	10	48	0
TAP	10	96	6
TAP	10	144	6
TAP	10	192	2
TAP	10	240	2
STR	10	288	4
SCR	10	288	4	96	192	3
TAP	10	312	3
TAP	10	336	4
TAP	10	360	3
TAP	11	0	4
TAP	11	288	1
TAP	11	288	6
TAP	12	0	2
TAP	12	48	2
TAP	12	96	4
TAP	12	144	4
TAP	12	192	6
TAP	12	192	7
TAP	12	240	6
TAP	12	240	7
TAP	12	288	6
TAP	12	288	7
TAP	12	336	5
TAP	12	360	4
TAP	13	0	5
TAP	13	48	5
TAP	13	96	3
TAP	13	144	3
TAP	13	192	0
TAP	13	192	1
TAP	13	240	0
TAP	13	240	1
TAP	13	288	0
TAP	13	288	1
TAP	13	336	2
TAP	13	360	3
TAP	14	0	2
TAP	14	48	2
TAP	14	96	4
TAP	14	144	4
TAP	14	192	6
TAP	14	192	7
TAP	14	240	6
TAP	14	240	7
TAP	14	288	6
TAP	14	288	7
TAP	14	336	5
TAP	14	360	4
TAP	15	0	5
TAP	15	48	1
TAP	15	48	5
TAP	15	96	2
TAP	15	96	6
TAP	15	144	3
TAP	15	144	7
STR	15	192	0
SCL	15	192	0	96	48	5
STR	15	192	4
SCL	15	192	4	96	48	1
BRK	15	288	0
BRK	15	288	4
TAP	16	0	6
TAP	16	48	6
TAP	16	96	0
TAP	16	144	0
TAP	16	192	2
TAP	16	192	3
TAP	16	240	2
TAP	16	240	3
TAP	16	288	2
TAP	16	288	3
TAP	16	336	1
TAP	16	360	0
TAP	17	0	1
TAP	17	48	1
TAP	17	96	7
TAP	17	144	7
TAP	17	192	4
TAP	17	192	5
TAP	17	240	4
TAP	17	240	5
TAP	17	288	4
TAP	17	288	5
TAP	17	336	6
TAP	17	360	7
TAP	18	0	6
TAP	18	48	6
TAP	18	96	0
TAP	18	144	0
TAP	18	192	2
TAP	18	192	3
TAP	18	240	2
TAP	18	240	3
TAP	18	288	2
TAP	18	288	3
TAP	18	336	1
TAP	18	360	0
TAP	19	0	1
TAP	19	48	1
TAP	19	48	5
TAP	19	96	2
TAP	19	96	6
TAP	19	144	3
TAP	19	144	7
TAP	19	192	0
TAP	19	192	4
TAP	20	0	0
TAP	20	24	1
TAP	20	48	2
TAP	20	72	3
TAP	20	96	4
TAP	20	120	5
TAP	20	144	6
TAP	20	168	7
STR	20	192	0
SI_	20	192	0	96	48	4
BRK	20	288	0
HLD	21	0	1	192
TAP	21	0	7
TAP	21	96	0
TAP	21	144	7
HLD	21	192	6	192
TAP	21	288	7
TAP	21	336	0
TAP	22	0	1
STR	22	96	3
SI_	22	96	3	96	48	1
STR	22	96	4
SI_	22	96	4	96	48	6
TAP	22	144	2
TAP	22	144	5
TAP	22	192	3
TAP	22	192	4
TAP	23	0	1
HLD	23	0	7	192
TAP	23	96	6
TAP	23	144	6
HLD	23	192	0	192
TAP	23	288	1
TAP	23	336	1
STR	24	0	7
SLL	24	0	7	96	96	1
STR	24	96	7
SI_	24	96	7	96	48	3
TAP	24	192	7
TAP	24	288	2
TAP	24	288	5
STR	25	0	0
SI_	25	0	0	96	48	4
TAP	25	72	7
TAP	25	96	0
TAP	25	144	6
STR	25	192	7
SI_	25	192	7	96	48	3
TAP	25	264	0
TAP	25	288	7
TAP	25	336	2
STR	26	0	1
SI_	26	0	1	96	48	4
TAP	26	72	7
TAP	26	96	1
TAP	26	144	5
STR	26	192	6
SI_	26	192	6	96	48	3
TAP	26	264	0
TAP	26	288	6
TAP	26	336	1
STR	27	0	2
SI_	27	0	2	96	48	7
TAP	27	72	6
TAP	27	96	2
TAP	27	144	4
STR	27	192	5
SCR	27	192	5	96	48	0
TAP	27	264	1
TAP	27	288	5
TAP	27	336	3
TAP	28	0	2
TAP	28	0	6
TAP	28	48	2
TAP	28	48	6
TAP	28	96	1
TAP	28	96	5
TAP	28	144	1
TAP	28	144	5
STR	28	192	0
SI_	28	192	0	96	48	3
STR	28	192	4
SI_	28	192	4	96	48	7
TAP	28	288	0
TAP	28	288	4
TAP	29	0	2
TAP	29	0	6
TAP	29	72	1
TAP	29	96	0
TAP	29	144	2
TAP	29	144	7
TAP	29	192	5
TAP	29	264	6
TAP	29	288	7
TAP	29	336	0
TAP	29	336	5
TAP	30	0	7
TAP	30	48	0
TAP	30	96	1
TAP	30	144	2
HLD	30	192	3	96
STR	30	192	4
SI_	30	192	4	96	48	0
TAP	31	0	2
TAP	31	0	6
TAP	31	72	5
TAP	31	96	4
TAP	31	144	3
TAP	31	144	6
TAP	31	192	1
TAP	31	264	2
TAP	31	288	3
TAP	31	336	1
TAP	31	336	4
TAP	32	0	3
TAP	32	48	4
TAP	32	96	5
TAP	32	144	6
STR	32	192	0
SI_	32	192	0	96	48	4
HLD	32	192	7	96
HLD	33	0	1	72
TAP	33	72	0
STR	33	96	1
SI_	33	96	1	96	48	4
TAP	33	144	7
TAP	33	192	1
TAP	33	288	6
TAP	33	336	0
HLD	34	0	6	72
TAP	34	72	7
STR	34	96	6
SI_	34	96	6	96	48	3
TAP	34	144	0
TAP	34	192	6
TAP	34	288	1
TAP	34	336	6
HLD	35	0	0	72
TAP	35	72	7
STR	35	96	0
SSL	35	96	0	96	96	4
TAP	35	144	6
TAP	35	192	0
TAP	35	288	5
TAP	36	0	2
TAP	36	0	5
TAP	36	48	2
TAP	36	48	5
TAP	36	96	1
TAP	36	96	6
TAP	36	144	1
TAP	36	144	6
TAP	36	192	0
TAP	36	216	7
TAP	36	240	0
TAP	36	264	7
TAP	36	288	0
STR	37	0	2
SUR	37	0	2	96	48	7
STR	37	0	4
SUL	37	0	4	96	48	7
TAP	37	96	2
TAP	37	96	4
TAP	37	240	5
TAP	37	288	6
TAP	37	336	7
STR	38	0	0
SUL	38	0	0	96	48	3
SUR	38	0	0	96	48	5
TAP	38	96	0
BRK	38	192	1
BRK	38	192	6
BRK	38	288	1
BRK	38	288	6
STR	39	0	2
SUR	39	0	2	96	48	7
STR	39	0	4
SUL	39	0	4	96	48	7
TAP	39	96	2
TAP	39	96	4
TAP	39	240	0
TAP	39	288	1
TAP	39	336	2
TAP	40	0	3
TAP	40	0	5
BRK	40	96	0
BRK	40	96	7
TAP	40	192	2
TAP	40	192	4
BRK	40	288	0
BRK	40	288	7
STR	41	0	3
SUR	41	0	3	96	48	0
STR	41	0	5
SUL	41	0	5	96	48	0
TAP	41	96	3
TAP	41	96	5
TAP	41	240	2
TAP	41	288	1
TAP	41	336	0
STR	42	0	7
SUL	42	0	7	96	48	2
SUR	42	0	7	96	48	4
TAP	42	96	7
BRK	42	192	1
BRK	42	192	6
BRK	42	288	1
BRK	42	288	6
TAP	43	0	3
TAP	43	0	4
TAP	43	48	2
TAP	43	96	1
TAP	43	144	0
TAP	43	192	6
TAP	43	192	7
TAP	43	240	5
TAP	43	288	4
TAP	43	336	3
STR	44	0	2
SXL	44	0	2	96	192	5
TAP	44	48	2
TAP	44	96	2
STR	45	0	7
SI_	45	0	7	96	48	3
TAP	45	48	7
STR	45	96	1
SI_	45	96	1	96	48	4
TAP	45	144	1
STR	45	192	6
SI_	45	192	6	96	48	3
TAP	45	240	6
STR	45	288	0
SI_	45	288	0	96	48	4
TAP	45	336	0
TAP	46	0	7
TAP	46	48	7
TAP	46	144	0
TAP	46	144	7
HLD	46	240	2	48
HLD	46	288	3	48
HLD	46	336	4	48
STR	47	0	5
SI_	47	0	5	96	48	0
TAP	47	48	5
STR	47	96	2
SI_	47	96	2	96	48	7
TAP	47	144	2
STR	47	192	6
SI_	47	192	6	96	48	3
TAP	47	240	6
STR	47	288	1
SI_	47	288	1	96	48	4
TAP	47	336	1
TAP	48	0	7
TAP	48	48	7
STR	48	144	0
SXL	48	144	0	96	72	1
STR	48	144	7
SXR	48	144	7	96	72	6
TAP	48	192	0
TAP	48	192	7
TAP	49	0	3
TAP	49	0	4
TAP	49	96	5
TAP	49	96	7
STR	49	144	0
SI_	49	144	0	96	48	4
TAP	49	144	6
TAP	49	240	0
STR	49	240	7
SI_	49	240	7	96	48	3
TAP	49	336	1
TAP	49	336	7
TAP	50	48	2
TAP	50	96	1
TAP	50	144	0
STR	50	192	5
SI_	50	192	5	96	48	3
STR	50	192	7
SI_	50	192	7	96	48	3
TAP	50	288	5
TAP	50	288	7
TAP	51	0	1
TAP	51	0	4
TAP	51	48	6
TAP	51	72	3
TAP	51	96	6
TAP	51	144	0
TAP	51	168	5
TAP	51	192	0
TAP	51	240	7
TAP	51	264	2
TAP	51	288	7
STR	51	336	0
SI_	51	336	0	96	48	4
STR	52	0	7
SI_	52	0	7	96	48	3
BST	52	48	0
SI_	52	48	0	96	48	5
BST	52	96	7
SCR	52	96	7	96	96	2
BRK	52	144	0
BRK	52	192	7
STR	53	0	3
SI_	53	0	3	96	48	7
TAP	53	48	3
STR	53	96	5
SI_	53	96	5	96	48	0
TAP	53	144	5
STR	53	192	2
SI_	53	192	2	96	48	7
TAP	53	240	2
STR	53	288	4
SI_	53	288	4	96	48	0
TAP	53	336	4
TAP	54	0	3
TAP	54	48	3
TAP	54	144	3
TAP	54	144	4
TAP	54	240	1
TAP	54	240	6
TAP	54	336	3
TAP	54	336	4
TAP	55	0	5
TAP	55	48	6
STR	55	96	7
SI_	55	96	7	96	96	1
TAP	55	144	0
STR	55	192	1
SI_	55	192	1	96	96	5
STR	55	288	5
SI_	55	288	5	96	96	3
TAP	56	0	3
TAP	56	192	2
TAP	56	192	5
TAP	56	288	1
TAP	56	288	6
STR	57	0	0
SCR	57	0	0	96	96	3
TAP	57	0	7
STR	57	96	3
SCR	57	96	3	96	96	6
STR	57	192	6
SCR	57	192	6	96	96	1
STR	57	288	1
SCR	57	288	1	96	96	4
STR	58	0	4
SCR	58	0	4	96	96	0
STR	58	96	0
SCR	58	96	0	96	96	4
TAP	58	192	4
TAP	59	0	6
TAP	59	0	7
TAP	59	96	3
TAP	59	96	4
TAP	59	144	2
TAP	59	144	5
TAP	59	240	0
TAP	59	240	2
TAP	59	336	5
TAP	59	336	7
TAP	60	48	1
TAP	60	48	6
TAP	60	96	2
TAP	60	96	5
STR	60	144	3
SCL	60	144	3	96	72	0
STR	60	144	4
SCR	60	144	4	96	72	7
TAP	60	192	3
TAP	60	192	4
TAP	61	0	2
TAP	61	48	3
TAP	61	96	4
HLD	61	144	5	96
TAP	61	240	7
HLD	61	336	2	96
TAP	62	48	0
TAP	62	144	3
TAP	62	144	4
TAP	62	192	2
TAP	62	192	5
TAP	62	240	1
TAP	62	240	6
TAP	62	288	0
TAP	62	288	7
TAP	63	0	5
TAP	63	48	4
TAP	63	96	3
HLD	63	144	2	96
TAP	63	240	0
HLD	63	336	5	96
TAP	64	48	7
TAP	64	96	0
TAP	64	144	1
STR	64	192	2
SI_	64	192	2	96	48	7
STR	64	192	6
SI_	64	192	6	96	48	3
STR	65	0	0
SI_	65	0	0	96	48	2
STR	65	96	4
SI_	65	96	4	96	48	6
STR	65	192	3
SI_	65	192	3	96	48	1
STR	65	288	7
SI_	65	288	7	96	48	5
STR	66	0	2
SI_	66	0	2	96	48	4
STR	66	96	6
SI_	66	96	6	96	48	0
STR	66	192	1
SI_	66	192	1	96	48	5
TAP	66	288	7
HLD	67	0	3	96
HLD	67	0	7	96
TAP	67	144	3
TAP	67	144	7
TAP	67	160	2
TAP	67	160	6
TAP	67	176	1
TAP	67	176	5
BRK	67	192	0
BRK	67	192	4
HLD	68	0	0	96
HLD	68	0	4	96
TAP	68	144	0
TAP	68	144	4
TAP	68	160	1
TAP	68	160	5
TAP	68	176	2
TAP	68	176	6
BRK	68	192	3
BRK	68	192	7
TAP	69	0	0
TAP	69	0	2
TAP	69	64	1
TAP	69	64	3
TAP	69	128	2
TAP	69	128	4
TAP	69	192	3
TAP	69	192	5
TAP	69	256	4
TAP	69	256	6
TAP	69	320	5
TAP	69	320	7
TAP	70	0	0
TAP	70	0	7
TAP	70	64	0
TAP	70	64	7
TAP	70	84	1
TAP	70	84	6
TAP	70	104	2
TAP	70	104	5
TAP	70	124	3
TAP	70	124	4
BRK	70	192	1
BRK	70	192	6
TAP	71	192	2
TAP	71	192	5
TAP	71	240	0
TAP	71	264	7
TAP	71	288	0
TAP	71	312	7
TAP	71	336	0
TAP	71	360	7
STR	72	0	0
SI_	72	0	0	96	48	4
TAP	72	48	0
STR	72	96	6
SI_	72	96	6	96	48	3
TAP	72	144	6
STR	72	192	1
SI_	72	192	1	96	48	4
TAP	72	240	1
STR	72	288	7
SI_	72	288	7	96	48	3
TAP	72	336	7
TAP	73	0	0
TAP	73	48	0
TAP	73	144	0
TAP	73	144	7
HLD	73	240	5	48
HLD	73	288	4	48
HLD	73	336	3	48
STR	74	0	2
SI_	74	0	2	96	48	7
TAP	74	48	2
STR	74	96	5
SI_	74	96	5	96	48	0
TAP	74	144	5
STR	74	192	1
SI_	74	192	1	96	48	4
TAP	74	240	1
STR	74	288	6
SI_	74	288	6	96	48	3
TAP	74	336	6
TAP	75	0	0
TAP	75	48	0
STR	75	144	0
SXL	75	144	0	96	72	1
STR	75	144	7
SXR	75	144	7	96	72	6
TAP	75	192	0
TAP	75	192	7
TAP	76	0	3
TAP	76	0	4
TAP	76	96	0
TAP	76	96	2
TAP	76	144	1
STR	76	144	7
SI_	76	144	7	96	48	3
STR	76	240	0
SI_	76	240	0	96	48	4
TAP	76	240	7
TAP	76	336	0
TAP	76	336	6
TAP	77	48	5
TAP	77	96	6
TAP	77	144	7
STR	77	192	0
SI_	77	192	0	96	48	4
STR	77	192	2
SI_	77	192	2	96	48	4
TAP	77	288	0
TAP	77	288	2
TAP	78	0	3
TAP	78	0	6
TAP	78	48	1
TAP	78	72	4
TAP	78	96	1
TAP	78	144	7
TAP	78	168	2
TAP	78	192	7
TAP	78	240	0
TAP	78	264	5
TAP	78	288	0
STR	78	336	7
SI_	78	336	7	96	48	3
STR	79	0	0
SI_	79	0	0	96	48	4
BST	79	48	7
SI_	79	48	7	96	48	2
BST	79	96	0
SCL	79	96	0	96	96	5
BRK	79	144	7
BRK	79	192	0
STR	80	0	4
SI_	80	0	4	96	48	0
TAP	80	48	4
STR	80	96	2
SI_	80	96	2	96	48	7
TAP	80	144	2
STR	80	192	5
SI_	80	192	5	96	48	0
TAP	80	240	5
STR	80	288	3
SI_	80	288	3	96	48	7
TAP	80	336	3
TAP	81	0	4
TAP	81	48	4
TAP	81	144	3
TAP	81	144	4
TAP	81	240	1
TAP	81	240	6
TAP	81	336	3
TAP	81	336	4
TAP	82	0	5
TAP	82	48	6
STR	82	96	7
SI_	82	96	7	96	96	1
TAP	82	144	0
STR	82	192	1
SI_	82	192	1	96	96	5
STR	82	288	5
SI_	82	288	5	96	96	3
TAP	83	0	3
TAP	83	192	2
TAP	83	192	5
TAP	83	288	1
TAP	83	288	6
STR	84	0	0
SCR	84	0	0	96	96	3
TAP	84	0	7
STR	84	96	3
SCR	84	96	3	96	96	6
STR	84	192	6
SCR	84	192	6	96	96	1
STR	84	288	1
SCR	84	288	1	96	96	4
STR	85	0	4
SCR	85	0	4	96	96	0
STR	85	96	0
SCR	85	96	0	96	96	4
TAP	85	192	4
TAP	86	0	6
TAP	86	0	7
TAP	86	96	4
TAP	86	96	5
TAP	86	144	2
TAP	86	144	3
STR	86	240	0
SI_	86	240	0	96	48	5
STR	86	240	1
SI_	86	240	1	96	48	4
TAP	86	336	0
TAP	86	336	1
TAP	87	48	2
TAP	87	48	7
TAP	87	96	0
TAP	87	96	5
TAP	87	144	1
TAP	87	144	6
BRK	87	192	1
BRK	87	192	6
TAP	87	240	7
TAP	87	264	0
TAP	87	288	7
TAP	87	336	7
TAP	88	0	0
TAP	88	0	7
TAP	88	96	4
TAP	88	96	5
TAP	88	144	2
TAP	88	144	3
STR	88	240	6
SI_	88	240	6	96	48	3
STR	88	240	7
SI_	88	240	7	96	48	2
TAP	88	336	6
TAP	88	336	7
TAP	89	48	1
TAP	89	48	5
STR	89	96	3
SXR	89	96	3	96	144	4
STR	89	96	7
SXR	89	96	7	96	144	0
BRK	89	192	3
BRK	89	192	7
TAP	90	0	1
TAP	90	0	6
TAP	90	48	1
TAP	90	72	0
TAP	90	96	1
TAP	90	144	7
TAP	90	168	2
TAP	90	192	7
TAP	90	240	3
TAP	90	264	6
TAP	90	288	3
TAP	90	336	5
TAP	90	360	4
TAP	91	0	5
TAP	91	48	2
TAP	91	72	3
TAP	91	96	2
TAP	91	144	4
TAP	91	168	1
TAP	91	192	4
TAP	91	240	0
TAP	91	264	5
TAP	91	288	0
TAP	91	336	6
TAP	91	360	7
TAP	92	0	6
TAP	92	48	1
TAP	92	72	0
TAP	92	96	1
TAP	92	144	7
TAP	92	168	2
TAP	92	192	7
TAP	92	240	3
TAP	92	264	6
TAP	92	288	3
TAP	92	336	5
TAP	92	360	4
TAP	93	0	5
TAP	93	48	3
TAP	93	48	5
TAP	93	96	2
TAP	93	96	6
TAP	93	144	1
TAP	93	144	7
STR	93	192	0
SF_	93	192	0	96	48	4
BRK	93	288	0
TAP	94	0	2
TAP	94	0	5
TAP	94	48	5
TAP	94	72	4
TAP	94	96	5
TAP	94	144	3
TAP	94	168	6
TAP	94	192	3
TAP	94	240	7
TAP	94	264	2
TAP	94	288	7
TAP	94	336	1
TAP	94	360	0
TAP	95	0	1
TAP	95	48	6
TAP	95	72	7
TAP	95	96	6
TAP	95	144	0
TAP	95	168	5
TAP	95	192	0
TAP	95	240	4
TAP	95	264	1
TAP	95	288	4
TAP	95	336	2
TAP	95	360	3
TAP	96	0	2
TAP	96	48	5
TAP	96	72	4
TAP	96	96	5
TAP	96	144	3
TAP	96	168	6
TAP	96	192	3
TAP	96	240	7
TAP	96	264	2
TAP	96	288	7
TAP	96	336	1
TAP	96	360	0
TAP	97	0	1
TAP	97	48	1
TAP	97	48	7
TAP	97	96	2
TAP	97	96	6
TAP	97	144	3
TAP	97	144	5
STR	97	192	4
SF_	97	192	4	96	48	0
BRK	97	288	4

T_REC_TAP	610
T_REC_BRK	32
T_REC_XTP	0
T_REC_HLD	23
T_REC_XHO	0
T_REC_STR	111
T_REC_BST	4
T_REC_XST	0
T_REC_TTP	0
T_REC_THO	0
T_REC_SLD	117
T_REC_ALL	897
T_NUM_TAP	721
T_NUM_BRK	36
T_NUM_HLD	23
T_NUM_SLD	117
T_NUM_ALL	897
T_JUDGE_TAP	757
T_JUDGE_HLD	48
T_JUDGE_SLD	117
T_JUDGE_ALL	922
TTM_EACHPAIRS	180
TTM_SCR_TAP	360500
TTM_SCR_BRK	93600
TTM_SCR_HLD	23000
TTM_SCR_SLD	175500
TTM_SCR_ALL	652600
TTM_SCR_S	629550
TTM_SCR_SS	649000
TTM_RAT_ACV	10055

