VERSION	0.00.00	1.03.00
FES_MODE	0
BPM_DEF	194.000	194.000	194.000	194.000
MET_DEF	4	4
RESOLUTION	384
CLK_DEF	384
COMPATIBLE_CODE	MA2

BPM	0	0	194.000
MET	0	0	4	4

TAP	2	0	0
TAP	2	0	7
TAP	2	96	1
TAP	2	96	6
TAP	2	144	1
TAP	2	144	6
TAP	2	240	0
TAP	2	240	7
TAP	2	336	2
TAP	2	336	5
TAP	3	48	2
TAP	3	48	5
TAP	3	144	3
TAP	3	144	4
TAP	3	192	3
TAP	3	192	4
STR	4	0	1
SUR	4	0	1	96	192	4
STR	5	0	6
SUL	5	0	6	96	192	3
STR	6	0	1
SXR	6	0	1	96	192	4
STR	7	0	6
SXL	7	0	6	96	192	3
STR	8	0	2
SUL	8	0	2	96	192	7
HLD	9	0	1	384
HLD	9	0	6	384
BRK	10	48	1
BRK	10	48	6
TAP	10	192	3
TAP	10	240	4
TAP	10	288	3
TAP	10	336	4
TAP	11	0	3
TAP	11	96	2
TAP	11	96	5
STR	11	192	3
SI_	11	192	3	96	48	1
STR	11	192	4
SI_	11	192	4	96	48	6
TAP	12	0	0
TAP	12	48	7
TAP	12	96	1
TAP	12	144	7
TAP	12	192	2
TAP	12	240	7
TAP	12	288	1
TAP	13	0	4
TAP	13	48	3
TAP	13	96	5
TAP	13	144	3
TAP	13	192	6
TAP	13	240	3
TAP	13	288	5
TAP	14	0	0
TAP	14	48	7
TAP	14	96	1
TAP	14	144	7
TAP	14	192	2
TAP	14	240	7
TAP	14	288	1
TAP	15	0	2
TAP	15	0	3
STR	15	96	4
SI_	15	96	4	96	96	1
STR	15	96	5
SI_	15	96	5	96	96	0
TAP	16	0	7
TAP	16	48	0
TAP	16	96	6
TAP	16	144	0
TAP	16	192	5
TAP	16	240	0
TAP	16	288	6
TAP	17	0	3
TAP	17	48	4
TAP	17	96	2
TAP	17	144	4
TAP	17	192	1
TAP	17	240	4
TAP	17	288	2
TAP	18	0	7
TAP	18	48	0
TAP	18	96	6
TAP	18	144	0
TAP	18	192	5
TAP	18	240	0
TAP	18	288	6
TAP	19	0	4
TAP	19	0	5
STR	19	96	6
SI_	19	96	6	96	96	3
STR	19	96	7
SI_	19	96	7	96	96	2
STR	20	0	0
SF_	20	0	0	96	192	4
HLD	21	0	6	96
TAP	21	96	7
HLD	21	192	5	96
TAP	21	288	4
STR	22	0	7
SI_	22	0	7	96	96	4
TAP	22	96	0
BRK	22	192	1
HLD	23	0	1	96
TAP	23	96	0
HLD	23	192	2	96
TAP	23	288	3
STR	24	0	0
SI_	24	0	0	96	96	3
TAP	24	96	7
TAP	24	192	6
BRK	24	288	3
STR	25	0	6
SI_	25	0	6	96	48	4
STR	25	192	7
SI_	25	192	7	96	48	3
STR	26	0	0
SI_	26	0	0	96	48	4
STR	26	192	1
SI_	26	192	1	96	48	3
STR	27	0	4
SI_	27	0	4	96	48	7
STR	27	192	3
SI_	27	192	3	96	48	0
TAP	28	0	7
TAP	28	96	0
TAP	28	96	7
TAP	28	192	1
TAP	28	192	6
BRK	28	288	2
TAP	28	288	5
HLD	29	0	0	96
HLD	29	0	1	96
HLD	29	192	2	96
HLD	29	192	7	96
TAP	30	0	1
TAP	30	48	0
TAP	30	96	2
TAP	30	144	7
TAP	30	192	3
TAP	30	288	4
TAP	30	288	5
HLD	31	0	6	96
HLD	31	0	7	96
HLD	31	192	0	96
HLD	31	192	5	96
TAP	32	0	6
TAP	32	48	7
TAP	32	96	5
TAP	32	144	0
BRK	32	192	4
TAP	32	288	2
TAP	32	288	3
HLD	33	0	2	288
TAP	33	96	3
TAP	33	192	3
TAP	33	288	3
HLD	34	0	5	192
TAP	34	96	4
TAP	34	192	4
STR	34	288	0
SSL	34	288	0	96	192	4
TAP	35	288	2
TAP	35	288	5
TAP	36	0	4
TAP	36	0	5
TAP	36	96	3
TAP	36	96	4
TAP	36	192	2
TAP	36	192	3
TAP	36	288	2
TAP	36	288	5
STR	37	0	3
SI_	37	0	3	96	48	1
STR	37	0	4
SI_	37	0	4	96	48	6
TAP	37	192	0
TAP	37	240	0
TAP	37	288	7
STR	38	0	3
SI_	38	0	3	96	48	1
STR	38	0	4
SI_	38	0	4	96	48	6
BRK	38	192	0
BRK	38	288	7
STR	39	0	3
SI_	39	0	3	96	48	1
STR	39	0	4
SI_	39	0	4	96	48	6
TAP	39	192	0
TAP	39	240	0
TAP	39	288	7
STR	40	0	4
SI_	40	0	4	96	48	0
STR	40	0	5
SI_	40	0	5	96	48	7
STR	40	192	2
SI_	40	192	2	96	48	0
STR	40	192	3
SI_	40	192	3	96	48	7
STR	41	0	3
SI_	41	0	3	96	48	1
STR	41	0	4
SI_	41	0	4	96	48	6
TAP	41	192	7
TAP	41	240	7
TAP	41	288	0
STR	42	0	3
SI_	42	0	3	96	48	1
STR	42	0	4
SI_	42	0	4	96	48	6
BRK	42	192	7
BRK	42	288	0
STR	43	0	4
SCR	43	0	4	96	192	3
TAP	44	0	1
TAP	44	48	7
TAP	44	96	1
TAP	44	144	7
BRK	44	192	0
TAP	45	0	0
TAP	45	0	7
TAP	45	96	1
TAP	45	96	6
TAP	45	192	3
TAP	45	192	4
TAP	45	288	1
TAP	45	288	6
TAP	46	0	0
TAP	46	0	7
STR	46	48	0
SCR	46	48	0	96	96	3
STR	46	48	7
SCL	46	48	7	96	96	4
TAP	47	0	1
TAP	47	0	6
TAP	47	96	2
TAP	47	96	3
STR	47	192	4
SI_	47	192	4	96	48	2
STR	47	192	5
SI_	47	192	5	96	48	7
TAP	48	0	0
TAP	48	0	1
TAP	48	48	0
TAP	48	48	1
TAP	48	144	6
TAP	48	192	6
TAP	48	240	7
HLD	49	0	6	96
HLD	49	96	5	96
HLD	49	192	4	96
TAP	49	288	3
HLD	50	0	1	96
HLD	50	96	2	96
HLD	50	192	3	96
STR	50	288	4
SF_	50	288	4	96	288	0
BRK	52	48	6
BRK	52	48	7
BRK	52	96	6
BRK	52	96	7
BRK	52	144	6
BRK	52	144	7
BRK	52	192	6
BRK	52	192	7
TAP	53	0	4
TAP	53	0	5
TAP	53	96	3
TAP	53	96	4
TAP	53	192	2
TAP	53	192	3
TAP	53	288	0
TAP	53	288	5
TAP	54	0	6
TAP	54	0	7
STR	54	48	6
SCL	54	48	6	96	96	3
STR	54	48	7
SCR	54	48	7	96	96	2
STR	55	0	1
SI_	55	0	1	96	48	6
STR	55	192	4
SI_	55	192	4	96	48	7
TAP	56	0	1
TAP	56	0	6
TAP	56	192	3
TAP	56	288	4
STR	57	0	5
SCR	57	0	5	96	192	1
STR	58	0	2
SCR	58	0	2	96	192	6
TAP	59	0	0
TAP	59	0	7
TAP	59	96	1
TAP	59	96	6
TAP	59	144	1
TAP	59	144	6
TAP	59	240	0
TAP	59	240	7
TAP	59	336	2
TAP	59	336	3
TAP	60	48	1
TAP	60	48	6
TAP	60	96	1
TAP	60	96	6
TAP	60	144	0
TAP	60	144	7
STR	60	192	0
SI_	60	192	0	96	48	3
STR	60	192	7
SI_	60	192	7	96	48	4
HLD	61	0	2	288
TAP	61	96	0
TAP	61	192	7
TAP	61	288	6
HLD	62	0	5	288
TAP	62	96	7
TAP	62	192	0
TAP	62	288	1
HLD	63	0	2	192
TAP	63	96	0
HLD	63	192	5	192
TAP	63	288	7
HLD	64	0	2	192
TAP	64	96	0
HLD	64	192	5	192
TAP	64	288	7
STR	65	0	3
SI_	65	0	3	96	96	1
STR	65	192	4
SI_	65	192	4	96	96	6
STR	66	0	2
SI_	66	0	2	96	96	0
STR	66	192	5
SI_	66	192	5	96	96	7
TAP	67	0	0
STR	67	96	0
SI_	67	96	0	96	96	3
SI_	67	96	0	96	96	5
TAP	68	0	7
STR	68	96	7
SI_	68	96	7	96	96	2
SI_	68	96	7	96	96	4
STR	69	0	0
SSL	69	0	0	96	192	4
STR	70	0	7
SUR	70	0	7	96	192	0
HLD	71	192	0	96
HLD	71	192	7	96
TAP	72	0	0
TAP	72	0	7
TAP	72	96	1
TAP	72	96	6
STR	72	192	3
SI_	72	192	3	96	48	1
STR	72	192	4
SI_	72	192	4	96	48	6
TAP	73	0	0
TAP	73	0	7
STR	73	48	0
SCR	73	48	0	96	96	3
STR	73	48	7
SCL	73	48	7	96	96	4
TAP	74	0	1
TAP	74	0	6
TAP	74	96	4
TAP	74	96	5
STR	74	192	2
SI_	74	192	2	96	48	0
STR	74	192	3
SI_	74	192	3	96	48	5
TAP	75	0	6
TAP	75	0	7
TAP	75	48	6
TAP	75	48	7
TAP	75	144	1
TAP	75	192	1
TAP	75	240	0
HLD	76	0	1	96
HLD	76	96	2	96
HLD	76	192	3	96
HLD	76	288	4	96
HLD	77	0	6	96
HLD	77	96	5	96
HLD	77	192	4	96
STR	77	288	3
SF_	77	288	3	96	288	7
BRK	79	48	0
BRK	79	48	1
BRK	79	96	0
BRK	79	96	1
BRK	79	144	0
BRK	79	144	1
BRK	79	192	0
BRK	79	192	1
TAP	80	0	2
TAP	80	0	3
TAP	80	96	3
TAP	80	96	4
STR	80	192	4
SI_	80	192	4	96	48	2
STR	80	192	5
SI_	80	192	5	96	48	7
TAP	81	0	0
TAP	81	0	1
STR	81	48	0
SCL	81	48	0	96	96	5
STR	81	48	1
SCR	81	48	1	96	96	4
STR	82	0	6
SI_	82	0	6	96	48	1
STR	82	192	3
SI_	82	192	3	96	48	0
TAP	83	0	1
TAP	83	0	6
TAP	83	192	7
TAP	83	288	0
STR	84	0	1
SCR	84	0	1	96	192	5
STR	85	0	6
SCR	85	0	6	96	192	2
TAP	86	0	0
TAP	86	0	7
TAP	86	96	1
TAP	86	96	6
TAP	86	144	1
TAP	86	144	6
TAP	86	240	0
TAP	86	240	7
TAP	86	336	4
TAP	86	336	5
TAP	87	48	1
TAP	87	48	6
TAP	87	96	1
TAP	87	96	6
TAP	87	144	0
TAP	87	144	7
STR	87	192	0
SI_	87	192	0	96	48	3
STR	87	192	7
SI_	87	192	7	96	48	4
TAP	88	0	2
TAP	88	0	5
TAP	88	96	1
TAP	88	96	3
TAP	88	144	1
TAP	88	144	3
TAP	88	240	4
TAP	88	240	6
BRK	88	336	2
BRK	88	336	3
BRK	89	48	4
BRK	89	48	5
TAP	89	144	0
TAP	89	144	7
BRK	89	192	0
BRK	89	192	7
TAP	90	0	1
TAP	90	48	4
TAP	90	96	2
TAP	90	144	3
TAP	90	192	1
TAP	90	240	4
TAP	90	288	2
TAP	91	0	5
TAP	91	48	0
TAP	91	96	6
TAP	91	144	7
TAP	91	192	5
TAP	91	240	0
TAP	91	288	6
TAP	92	0	2
TAP	92	48	5
TAP	92	96	3
TAP	92	144	4
TAP	92	192	2
TAP	92	240	5
TAP	92	288	3
STR	93	0	0
SI_	93	0	0	96	48	3
STR	93	0	7
SI_	93	0	7	96	48	4
TAP	93	192	2
TAP	93	192	5
TAP	94	0	6
TAP	94	48	3
TAP	94	96	5
TAP	94	144	4
TAP	94	192	6
TAP	94	240	3
TAP	94	288	5
TAP	95	0	2
TAP	95	48	7
TAP	95	96	1
TAP	95	144	0
TAP	95	192	2
TAP	95	240	7
TAP	95	288	1
TAP	96	0	5
TAP	96	48	2
TAP	96	96	4
TAP	96	144	3
TAP	96	192	5
TAP	96	240	2
TAP	96	288	4
STR	97	0	3
SI_	97	0	3	96	48	0
STR	97	0	4
SI_	97	0	4	96	48	7
TAP	97	192	1
TAP	97	192	6
BRK	97	288	0
BRK	97	288	7

T_REC_TAP	286
T_REC_BRK	35
T_REC_XTP	0
T_REC_HLD	37
T_REC_XHO	0
T_REC_STR	78
T_REC_BST	0
T_REC_XST	0
T_REC_TTP	0
T_REC_THO	0
T_REC_SLD	80
T_REC_ALL	516
T_NUM_TAP	364
T_NUM_BRK	35
T_NUM_HLD	37
T_NUM_SLD	80
T_NUM_ALL	516
T_JUDGE_TAP	399
T_JUDGE_HLD	108
T_JUDGE_SLD	80
T_JUDGE_ALL	587
TTM_EACHPAIRS	111
TTM_SCR_TAP	182000
TTM_SCR_BRK	91000
TTM_SCR_HLD	37000
TTM_SCR_SLD	120000
TTM_SCR_ALL	430000
TTM_SCR_S	413750
TTM_SCR_SS	426500
TTM_RAT_ACV	10082

