VERSION	0.00.00	1.03.00
FES_MODE	0
BPM_DEF	194.000	194.000	194.000	194.000
MET_DEF	4	4
RESOLUTION	384
CLK_DEF	384
COMPATIBLE_CODE	MA2

BPM	0	0	194.000
MET	0	0	4	4

TAP	2	0	3
TAP	2	96	3
TAP	2	192	4
TAP	2	288	4
STR	3	0	3
SI_	3	0	3	96	96	0
STR	3	0	4
SI_	3	0	4	96	96	7
TAP	4	0	0
TAP	4	96	0
TAP	4	192	1
TAP	4	288	1
TAP	5	0	2
TAP	5	96	2
TAP	5	192	2
TAP	5	192	3
TAP	6	0	7
TAP	6	96	7
TAP	6	192	6
TAP	6	288	6
TAP	7	0	5
TAP	7	96	5
TAP	7	192	4
TAP	7	192	5
TAP	8	0	1
TAP	8	96	1
TAP	8	192	2
TAP	8	288	2
TAP	9	0	3
TAP	9	96	3
TAP	9	192	4
TAP	9	192	5
TAP	10	0	6
TAP	10	96	6
TAP	10	192	5
TAP	10	288	5
TAP	11	0	4
TAP	11	96	4
TAP	11	192	2
TAP	11	192	3
TAP	12	0	3
TAP	12	96	3
TAP	12	192	2
TAP	12	288	2
TAP	13	0	3
TAP	13	96	2
TAP	13	192	1
TAP	13	192	4
TAP	14	0	4
TAP	14	96	4
TAP	14	192	5
TAP	14	288	5
TAP	15	0	4
TAP	15	96	5
TAP	15	192	3
TAP	15	192	6
TAP	16	0	0
TAP	16	96	0
TAP	16	192	1
TAP	16	288	1
TAP	17	0	0
TAP	17	96	1
TAP	17	192	2
TAP	17	192	7
TAP	18	0	7
TAP	18	96	7
TAP	18	192	6
TAP	18	288	6
TAP	19	0	7
TAP	19	96	6
TAP	19	192	0
TAP	19	192	5
STR	20	0	0
SI_	20	0	0	96	96	3
STR	20	0	7
SI_	20	0	7	96	96	4
TAP	21	0	3
TAP	21	96	3
TAP	21	192	2
TAP	21	288	2
TAP	22	0	2
TAP	22	0	3
TAP	22	96	3
TAP	22	96	4
TAP	22	192	4
TAP	22	192	5
TAP	23	0	4
TAP	23	96	4
TAP	23	192	5
TAP	23	288	5
TAP	24	0	4
TAP	24	0	5
TAP	24	96	3
TAP	24	96	4
TAP	24	192	2
TAP	24	192	3
TAP	25	0	4
TAP	25	96	4
TAP	25	192	5
TAP	25	288	5
TAP	26	0	6
TAP	26	96	6
TAP	26	192	7
TAP	26	288	7
TAP	27	0	7
TAP	27	96	6
TAP	27	192	4
TAP	27	192	5
TAP	27	288	4
TAP	27	288	5
TAP	28	0	3
TAP	28	96	2
TAP	28	192	0
TAP	28	192	1
TAP	29	0	7
TAP	29	96	7
TAP	29	192	6
TAP	29	288	6
TAP	30	0	6
TAP	30	0	7
TAP	30	96	0
TAP	30	96	7
TAP	30	192	0
TAP	30	192	1
TAP	31	0	0
TAP	31	96	0
TAP	31	192	1
TAP	31	288	1
TAP	32	0	0
TAP	32	0	1
TAP	32	96	0
TAP	32	96	7
TAP	32	192	6
TAP	32	192	7
TAP	33	0	7
TAP	33	96	7
TAP	33	192	6
TAP	33	288	6
TAP	34	0	5
TAP	34	96	5
TAP	34	192	4
TAP	34	288	4
TAP	35	0	4
TAP	35	96	5
TAP	35	192	6
TAP	35	192	7
TAP	35	288	6
TAP	35	288	7
TAP	36	0	0
TAP	36	96	1
TAP	36	192	2
TAP	36	192	3
TAP	36	288	2
TAP	36	288	3
STR	37	0	1
SCR	37	0	1	96	288	7
BRK	38	192	0
BRK	38	288	0
STR	39	0	6
SCL	39	0	6	96	288	0
BRK	40	192	7
BRK	40	288	7
TAP	41	0	0
TAP	41	96	1
TAP	41	192	2
TAP	41	288	3
TAP	42	0	4
TAP	42	0	5
TAP	42	96	3
TAP	42	96	6
BRK	42	192	7
BRK	42	288	7
TAP	43	0	7
TAP	43	96	6
TAP	43	192	5
TAP	43	288	4
TAP	44	0	2
TAP	44	0	3
TAP	44	96	1
TAP	44	96	4
BRK	44	192	0
BRK	44	192	5
TAP	45	0	0
TAP	45	96	0
TAP	45	192	1
TAP	45	288	1
TAP	46	0	2
TAP	46	0	7
TAP	46	96	2
TAP	46	96	7
TAP	46	192	2
TAP	46	192	7
TAP	47	0	7
TAP	47	96	7
TAP	47	192	6
TAP	47	288	6
TAP	48	0	0
TAP	48	0	5
TAP	48	96	0
TAP	48	96	5
TAP	48	192	0
TAP	48	192	5
TAP	49	0	3
TAP	49	96	3
TAP	49	192	2
TAP	49	288	2
TAP	50	0	1
TAP	50	0	4
TAP	50	96	1
TAP	50	96	4
TAP	50	192	1
TAP	50	192	4
TAP	51	0	4
TAP	51	96	4
TAP	51	192	5
TAP	51	288	5
TAP	52	0	3
TAP	52	0	6
TAP	52	96	3
TAP	52	96	6
TAP	52	192	3
TAP	52	192	6
TAP	53	0	0
TAP	53	96	1
TAP	53	192	0
TAP	53	288	1
TAP	54	0	2
TAP	54	0	7
TAP	54	96	2
TAP	54	96	7
TAP	54	192	2
TAP	54	192	7
TAP	55	0	7
TAP	55	96	6
TAP	55	192	7
TAP	55	288	6
BRK	56	0	0
BRK	56	0	5
STR	57	0	6
SI_	57	0	6	96	96	3
STR	57	0	7
SI_	57	0	7	96	96	2
STR	58	0	0
SI_	58	0	0	96	96	5
STR	58	0	1
SI_	58	0	1	96	96	4
TAP	59	0	3
TAP	59	0	4
TAP	59	96	2
TAP	59	96	5
TAP	59	192	1
TAP	59	192	6
TAP	59	288	0
TAP	59	288	7
STR	60	0	0
SCR	60	0	0	96	96	3
STR	60	0	7
SCL	60	0	7	96	96	4
HLD	61	0	2	192
TAP	61	192	3
HLD	62	0	5	192
TAP	62	192	4
HLD	63	0	1	192
TAP	63	192	2
HLD	64	0	6	192
TAP	64	192	5
HLD	65	0	1	192
TAP	65	192	0
HLD	66	0	6	192
TAP	66	192	7
HLD	67	0	2	192
TAP	67	192	1
HLD	68	0	5	192
TAP	68	192	6
STR	69	0	2
SXR	69	0	2	96	480	6
TAP	72	0	0
TAP	72	96	1
TAP	72	192	2
TAP	72	288	3
TAP	73	0	4
TAP	73	0	5
TAP	73	96	4
TAP	73	96	5
TAP	73	192	3
TAP	73	192	6
TAP	74	0	7
TAP	74	96	6
TAP	74	192	5
TAP	74	288	4
TAP	75	0	4
TAP	75	0	5
TAP	75	96	3
TAP	75	96	6
TAP	75	192	2
TAP	75	192	7
TAP	76	0	5
TAP	76	96	4
TAP	76	192	3
TAP	76	288	2
TAP	77	0	3
TAP	77	96	4
TAP	77	192	5
TAP	77	288	6
TAP	78	0	7
TAP	78	96	0
TAP	78	192	1
TAP	78	288	0
TAP	79	0	0
TAP	79	0	1
TAP	79	96	0
TAP	79	96	7
TAP	79	192	6
TAP	79	192	7
TAP	80	0	3
TAP	80	96	2
TAP	80	192	1
TAP	80	288	0
TAP	81	0	6
TAP	81	0	7
TAP	81	96	6
TAP	81	96	7
TAP	81	192	0
TAP	81	192	5
TAP	82	0	4
TAP	82	96	5
TAP	82	192	6
TAP	82	288	7
BRK	83	0	0
BRK	83	0	5
TAP	84	0	6
TAP	84	96	7
TAP	84	192	0
TAP	84	288	1
TAP	85	0	0
TAP	85	96	7
TAP	85	192	6
TAP	85	288	5
TAP	86	0	4
TAP	86	96	3
TAP	86	192	2
TAP	86	288	3
TAP	87	0	2
TAP	87	0	3
TAP	87	96	3
TAP	87	96	4
TAP	87	192	4
TAP	87	192	5
STR	88	0	4
SI_	88	0	4	96	96	1
STR	88	0	5
SI_	88	0	5	96	96	0
STR	89	0	2
SI_	89	0	2	96	96	7
STR	89	0	3
SI_	89	0	3	96	96	6
TAP	90	0	0
TAP	90	96	0
TAP	90	192	1
TAP	90	288	1
TAP	91	0	2
TAP	91	96	2
TAP	91	192	3
TAP	91	288	3
TAP	92	0	4
TAP	92	96	5
TAP	92	192	6
TAP	92	288	7
TAP	93	0	6
TAP	93	0	7
TAP	93	96	0
TAP	93	96	7
BRK	93	192	0
BRK	93	192	1
TAP	94	0	7
TAP	94	96	7
TAP	94	192	6
TAP	94	288	6
TAP	95	0	5
TAP	95	96	5
TAP	95	192	4
TAP	95	288	4
TAP	96	0	3
TAP	96	96	2
TAP	96	192	1
TAP	96	288	0
TAP	97	0	0
TAP	97	0	1
TAP	97	96	0
TAP	97	96	7
BRK	97	192	6
BRK	97	192	7

T_REC_TAP	334
T_REC_BRK	16
T_REC_XTP	0
T_REC_HLD	8
T_REC_XHO	0
T_REC_STR	17
T_REC_BST	0
T_REC_XST	0
T_REC_TTP	0
T_REC_THO	0
T_REC_SLD	17
T_REC_ALL	392
T_NUM_TAP	351
T_NUM_BRK	16
T_NUM_HLD	8
T_NUM_SLD	17
T_NUM_ALL	392
T_JUDGE_TAP	367
T_JUDGE_HLD	32
T_JUDGE_SLD	17
T_JUDGE_ALL	416
TTM_EACHPAIRS	81
TTM_SCR_TAP	175500
TTM_SCR_BRK	41600
TTM_SCR_HLD	8000
TTM_SCR_SLD	25500
TTM_SCR_ALL	250600
TTM_SCR_S	241550
TTM_SCR_SS	249000
TTM_RAT_ACV	10064

