VERSION	0.00.00	1.03.00
FES_MODE	0
BPM_DEF	194.000	194.000	194.000	194.000
MET_DEF	4	4
RESOLUTION	384
CLK_DEF	384
COMPATIBLE_CODE	MA2

BPM	0	0	194.000
MET	0	0	4	4

TAP	2	0	0
TAP	2	192	0
TAP	3	0	7
TAP	3	96	7
TAP	3	192	7
TAP	4	0	0
TAP	4	192	0
TAP	5	0	1
TAP	5	192	1
TAP	6	0	2
TAP	6	192	2
TAP	7	0	3
TAP	7	192	3
TAP	8	0	4
TAP	8	192	4
TAP	9	0	5
TAP	9	192	5
TAP	10	0	6
TAP	10	192	6
TAP	11	0	7
TAP	11	192	7
TAP	12	0	7
TAP	12	96	7
TAP	12	192	7
TAP	13	0	6
TAP	13	96	6
TAP	13	192	6
TAP	14	0	5
TAP	14	96	5
TAP	14	192	5
TAP	15	0	4
TAP	15	96	3
TAP	15	192	4
TAP	16	0	3
TAP	16	96	3
TAP	16	192	3
TAP	17	0	2
TAP	17	96	2
TAP	17	192	2
TAP	18	0	1
TAP	18	96	1
TAP	18	192	1
TAP	19	0	0
TAP	19	96	0
TAP	19	192	0
BRK	20	0	0
BRK	20	0	7
TAP	21	0	0
TAP	21	192	0
TAP	22	0	1
TAP	22	96	0
TAP	22	192	1
TAP	23	0	2
TAP	23	192	2
TAP	24	0	3
TAP	24	96	4
TAP	24	192	3
TAP	25	0	4
TAP	25	192	4
TAP	25	192	5
TAP	26	0	5
TAP	26	192	4
TAP	26	192	5
TAP	27	0	6
BRK	27	192	6
BRK	27	192	7
TAP	28	0	7
TAP	28	96	7
TAP	28	192	7
TAP	29	0	7
TAP	29	192	7
TAP	30	0	6
TAP	30	96	7
TAP	30	192	6
TAP	31	0	5
TAP	31	192	5
TAP	32	0	4
TAP	32	96	3
TAP	32	192	4
TAP	33	0	3
TAP	33	192	2
TAP	33	192	3
TAP	34	0	2
TAP	34	192	2
TAP	34	192	3
TAP	35	0	1
TAP	35	192	0
TAP	35	192	1
TAP	36	0	0
TAP	36	96	0
TAP	36	192	0
STR	37	0	0
SI_	37	0	0	96	288	4
STR	39	0	7
SI_	39	0	7	96	288	3
STR	41	0	1
SI_	41	0	1	96	288	4
TAP	43	0	6
TAP	43	192	6
TAP	44	0	7
TAP	44	96	0
TAP	44	192	7
TAP	45	0	0
TAP	45	96	0
TAP	45	192	0
TAP	46	0	1
TAP	46	96	1
TAP	46	192	0
TAP	46	192	1
TAP	47	0	2
TAP	47	96	2
TAP	47	192	2
TAP	48	0	3
TAP	48	96	3
TAP	48	192	3
TAP	48	192	4
TAP	49	0	4
TAP	49	96	4
TAP	49	192	4
TAP	50	0	5
TAP	50	96	5
TAP	50	192	4
TAP	50	192	5
HLD	51	0	6	384
HLD	51	0	7	384
TAP	53	0	7
TAP	53	96	7
TAP	53	192	7
TAP	54	0	6
TAP	54	96	6
TAP	54	192	6
TAP	54	192	7
TAP	55	0	5
TAP	55	96	5
TAP	55	192	4
TAP	55	288	4
TAP	56	0	3
TAP	56	0	4
TAP	56	192	3
TAP	56	192	4
TAP	57	0	3
TAP	57	96	3
TAP	57	192	3
TAP	58	0	2
TAP	58	96	2
TAP	58	192	2
TAP	59	0	1
TAP	59	96	1
TAP	59	192	1
TAP	60	0	0
TAP	60	96	7
BRK	60	192	0
TAP	61	0	0
TAP	61	96	0
TAP	61	192	0
TAP	62	0	1
TAP	62	96	0
TAP	62	192	1
TAP	63	0	2
TAP	63	96	2
TAP	63	192	2
TAP	64	0	3
TAP	64	96	4
TAP	64	192	3
TAP	65	0	4
TAP	65	96	4
TAP	65	192	4
TAP	66	0	5
TAP	66	96	4
TAP	66	192	5
STR	67	0	6
SI_	67	0	6	96	288	2
TAP	69	0	0
TAP	69	0	1
TAP	69	192	0
TAP	69	192	1
TAP	70	0	6
TAP	70	0	7
BRK	70	192	6
BRK	70	192	7
TAP	72	0	7
TAP	72	96	7
TAP	72	192	6
TAP	72	288	6
TAP	73	0	5
TAP	73	96	5
TAP	73	192	3
TAP	73	192	4
TAP	74	0	3
TAP	74	96	3
TAP	74	192	2
TAP	74	288	2
TAP	75	0	1
TAP	75	96	1
TAP	75	192	0
TAP	75	192	7
TAP	76	0	1
TAP	76	96	0
TAP	76	192	1
TAP	77	0	6
TAP	77	96	7
TAP	77	192	6
HLD	78	0	0	384
HLD	78	0	7	384
TAP	79	192	0
TAP	79	192	7
TAP	80	0	0
TAP	80	96	0
TAP	80	192	1
TAP	80	288	1
TAP	81	0	2
TAP	81	96	2
TAP	81	192	3
TAP	81	192	4
TAP	82	0	4
TAP	82	96	4
TAP	82	192	5
TAP	82	288	5
TAP	83	0	6
TAP	83	96	6
TAP	83	192	0
TAP	83	192	7
TAP	84	0	6
TAP	84	0	7
TAP	84	192	6
TAP	84	192	7
TAP	85	0	0
TAP	85	0	1
TAP	85	192	0
TAP	85	192	1
TAP	86	0	0
TAP	86	192	0
TAP	87	0	7
TAP	87	96	7
TAP	87	192	7
TAP	88	0	7
TAP	88	192	7
TAP	89	0	0
TAP	89	96	0
BRK	89	192	0
TAP	90	0	1
TAP	90	96	1
TAP	90	192	1
TAP	91	0	2
TAP	91	96	2
TAP	91	192	2
TAP	92	0	3
TAP	92	96	3
TAP	92	192	3
TAP	93	0	4
TAP	93	96	3
TAP	93	192	4
TAP	94	0	5
TAP	94	96	5
TAP	94	192	5
TAP	95	0	6
TAP	95	96	6
TAP	95	192	6
TAP	96	0	7
TAP	96	96	7
TAP	96	192	7
TAP	97	0	0
TAP	97	96	7
TAP	97	192	0
BRK	97	288	7

T_REC_TAP	244
T_REC_BRK	9
T_REC_XTP	0
T_REC_HLD	4
T_REC_XHO	0
T_REC_STR	4
T_REC_BST	0
T_REC_XST	0
T_REC_TTP	0
T_REC_THO	0
T_REC_SLD	4
T_REC_ALL	265
T_NUM_TAP	248
T_NUM_BRK	9
T_NUM_HLD	4
T_NUM_SLD	4
T_NUM_ALL	265
T_JUDGE_TAP	257
T_JUDGE_HLD	32
T_JUDGE_SLD	4
T_JUDGE_ALL	293
TTM_EACHPAIRS	28
TTM_SCR_TAP	124000
TTM_SCR_BRK	23400
TTM_SCR_HLD	4000
TTM_SCR_SLD	6000
TTM_SCR_ALL	157400
TTM_SCR_S	151850
TTM_SCR_SS	156500
TTM_RAT_ACV	10057

