VERSION	0.00.00	1.03.00
FES_MODE	0
BPM_DEF	160.000	160.000	160.000	160.000
MET_DEF	4	4
RESOLUTION	384
CLK_DEF	384
COMPATIBLE_CODE	MA2

BPM	0	0	160.000
MET	0	0	4	4
MET	49	0	4	7
MET	68	96	4	4

TAP	1	0	0
TAP	1	0	7
TAP	1	48	2
TAP	1	72	3
TAP	1	96	2
TAP	1	144	5
TAP	1	168	4
TAP	1	192	5
TAP	1	240	2
TAP	1	264	3
TAP	1	288	2
TAP	1	336	5
TAP	1	360	4
TAP	2	0	5
TAP	2	48	2
TAP	2	72	3
TAP	2	96	1
TAP	2	144	5
TAP	2	168	4
TAP	2	192	6
TAP	2	240	2
TAP	2	264	3
TAP	2	288	1
TAP	2	336	5
TAP	2	360	4
TAP	3	0	6
TAP	3	48	1
TAP	3	72	3
TAP	3	96	2
TAP	3	144	6
TAP	3	168	4
TAP	3	192	5
TAP	3	240	1
TAP	3	264	3
TAP	3	288	2
TAP	3	336	6
TAP	3	360	4
TAP	4	0	5
TAP	4	48	1
TAP	4	72	0
TAP	4	96	2
TAP	4	144	6
TAP	4	168	7
TAP	4	192	5
TAP	4	240	1
TAP	4	240	6
TAP	4	288	0
TAP	4	312	0
TAP	4	336	0
TAP	4	360	0
TAP	5	0	0
TAP	5	0	7
TAP	5	48	1
TAP	5	72	0
TAP	5	96	1
TAP	5	144	6
TAP	5	168	7
TAP	5	192	6
TAP	5	240	1
TAP	5	264	0
TAP	5	288	1
TAP	5	336	6
TAP	5	360	7
TAP	6	0	6
TAP	6	48	1
TAP	6	72	0
TAP	6	96	2
TAP	6	144	6
TAP	6	168	7
TAP	6	192	5
TAP	6	240	1
TAP	6	264	0
TAP	6	288	2
TAP	6	336	6
TAP	6	360	7
TAP	7	0	5
TAP	7	48	2
TAP	7	72	0
TAP	7	96	1
TAP	7	144	5
TAP	7	168	7
TAP	7	192	6
TAP	7	240	2
TAP	7	264	0
TAP	7	288	1
TAP	7	336	3
TAP	7	336	4
TAP	8	0	6
TAP	8	24	6
TAP	8	48	6
TAP	8	96	1
TAP	8	120	1
TAP	8	144	1
TAP	8	192	3
TAP	8	192	4
TAP	8	216	3
TAP	8	216	4
TAP	8	240	3
TAP	8	240	4
TAP	8	288	0
TAP	8	288	7
TAP	8	312	0
TAP	8	312	7
TAP	8	336	0
TAP	8	336	7
TAP	8	360	0
TAP	8	360	7
STR	9	0	0
SI_	9	0	0	96	24	4
TAP	9	0	7
TAP	9	72	5
TAP	9	96	0
STR	9	96	5
SI_	9	96	5	96	24	1
TAP	9	168	2
STR	9	192	2
SI_	9	192	2	96	24	4
TAP	9	192	5
TAP	9	264	7
TAP	9	288	2
STR	9	288	7
SI_	9	288	7	96	24	3
TAP	9	360	3
STR	10	0	3
SCR	10	0	3	96	48	6
STR	10	0	7
SCR	10	0	7	96	48	2
TAP	10	240	2
TAP	10	240	3
TAP	10	288	0
TAP	10	288	7
TAP	10	336	4
TAP	10	336	5
TAP	11	0	0
STR	11	0	7
SI_	11	0	7	96	24	3
TAP	11	72	2
STR	11	96	2
SI_	11	96	2	96	24	6
TAP	11	96	7
TAP	11	168	5
TAP	11	192	2
STR	11	192	5
SI_	11	192	5	96	24	3
TAP	11	264	0
STR	11	288	0
SI_	11	288	0	96	24	4
TAP	11	288	5
TAP	11	360	4
STR	12	0	0
SCL	12	0	0	96	48	5
STR	12	0	4
SCL	12	0	4	96	48	1
TAP	12	192	0
TAP	12	192	2
TAP	12	240	3
TAP	12	288	5
TAP	12	288	7
TAP	12	336	4
STR	13	0	0
SI_	13	0	0	96	24	4
TAP	13	0	7
TAP	13	72	5
TAP	13	96	0
TAP	13	96	5
TAP	13	168	3
TAP	13	168	5
TAP	13	192	3
TAP	13	192	5
TAP	13	240	1
TAP	13	288	2
TAP	13	288	3
TAP	13	336	6
STR	14	0	2
SI_	14	0	2	96	24	0
STR	14	0	7
SI_	14	0	7	96	24	3
TAP	14	72	2
TAP	14	72	7
TAP	14	96	2
TAP	14	96	7
TAP	14	192	4
TAP	14	192	5
TAP	14	288	2
TAP	14	288	7
STR	15	0	0
SI_	15	0	0	96	24	2
TAP	15	0	4
TAP	15	72	4
STR	15	96	0
SI_	15	96	0	96	24	6
TAP	15	96	4
TAP	15	168	4
STR	15	192	0
SI_	15	192	0	96	48	4
TAP	15	192	4
TAP	15	264	4
TAP	15	288	0
TAP	15	288	4
TAP	16	0	3
STR	16	0	7
SI_	16	0	7	96	24	5
TAP	16	72	3
TAP	16	96	3
STR	16	96	7
SI_	16	96	7	96	24	1
TAP	16	168	3
TAP	16	192	3
STR	16	192	7
SI_	16	192	7	96	48	3
TAP	16	264	3
TAP	16	288	3
TAP	16	288	7
STR	17	0	1
SI_	17	0	1	96	24	5
TAP	17	0	6
TAP	17	72	6
TAP	17	96	1
STR	17	96	6
SI_	17	96	6	96	24	0
TAP	17	168	2
STR	17	192	2
SCR	17	192	2	96	24	5
TAP	17	192	6
TAP	17	264	6
TAP	17	288	2
STR	17	288	6
SI_	17	288	6	96	24	2
TAP	17	360	2
STR	18	0	2
SCR	18	0	2	96	48	5
STR	18	0	6
SCR	18	0	6	96	48	1
TAP	18	240	4
TAP	18	240	5
TAP	18	288	0
TAP	18	288	7
TAP	18	336	2
TAP	18	336	3
TAP	19	0	1
STR	19	0	6
SI_	19	0	6	96	24	2
TAP	19	72	1
STR	19	96	1
SI_	19	96	1	96	24	7
TAP	19	96	6
TAP	19	168	5
TAP	19	192	1
STR	19	192	5
SCL	19	192	5	96	24	2
TAP	19	264	1
STR	19	288	1
SI_	19	288	1	96	24	5
TAP	19	288	5
TAP	19	360	5
STR	20	0	1
SCL	20	0	1	96	48	6
STR	20	0	5
SCL	20	0	5	96	48	2
TAP	20	192	5
TAP	20	192	7
TAP	20	240	4
TAP	20	288	0
TAP	20	288	2
TAP	20	336	3
STR	21	0	0
SCR	21	0	0	96	24	2
TAP	21	0	4
TAP	21	72	4
STR	21	96	0
SCL	21	96	0	96	24	6
TAP	21	96	4
TAP	21	168	4
STR	21	192	0
SI_	21	192	0	96	24	4
TAP	21	192	4
TAP	21	264	4
TAP	21	288	0
TAP	21	288	4
TAP	22	0	3
STR	22	0	7
SCL	22	0	7	96	24	5
TAP	22	72	3
TAP	22	96	3
STR	22	96	7
SCR	22	96	7	96	24	1
TAP	22	168	3
TAP	22	192	3
STR	22	192	7
SI_	22	192	7	96	24	3
TAP	22	264	3
TAP	22	288	3
TAP	22	288	7
STR	23	0	1
SI_	23	0	1	96	24	5
TAP	23	72	7
TAP	23	96	1
STR	23	96	7
SI_	23	96	7	96	24	3
TAP	23	168	0
STR	23	192	0
SI_	23	192	0	96	24	4
TAP	23	192	7
TAP	23	264	6
TAP	23	288	0
STR	23	288	6
SI_	23	288	6	96	24	2
TAP	23	360	0
STR	24	0	0
SI_	24	0	0	96	24	4
TAP	24	0	6
TAP	24	72	3
TAP	24	96	0
STR	24	96	3
SF_	24	96	3	96	96	7
TAP	25	0	0
TAP	25	72	2
TAP	25	96	3
TAP	25	144	7
TAP	25	216	5
TAP	25	240	4
TAP	25	288	0
TAP	25	360	2
TAP	26	0	3
TAP	26	48	7
TAP	26	120	5
TAP	26	144	4
TAP	26	192	2
TAP	26	216	4
TAP	26	240	0
TAP	26	264	6
TAP	26	288	3
TAP	26	312	5
TAP	26	336	1
TAP	26	360	7
TAP	27	0	0
TAP	27	72	5
TAP	27	96	4
TAP	27	144	7
TAP	27	216	2
TAP	27	240	3
TAP	27	288	0
TAP	27	360	5
TAP	28	0	4
TAP	28	48	7
TAP	28	120	2
TAP	28	144	3
TAP	28	192	0
TAP	28	216	0
TAP	28	240	0
TAP	28	288	4
TAP	28	288	5
TAP	28	336	2
TAP	28	336	3
TAP	29	0	7
TAP	29	72	2
TAP	29	96	3
TAP	29	144	0
TAP	29	216	5
TAP	29	240	4
TAP	29	288	7
TAP	29	360	2
TAP	30	0	3
TAP	30	48	0
TAP	30	120	5
TAP	30	144	4
TAP	30	192	7
TAP	30	216	7
TAP	30	240	7
TAP	30	288	2
TAP	30	288	3
TAP	30	336	4
TAP	30	336	5
TAP	31	0	0
TAP	31	0	1
TAP	31	72	5
TAP	31	96	4
TAP	31	144	6
TAP	31	144	7
TAP	31	216	2
TAP	31	240	3
TAP	31	288	0
TAP	31	288	1
TAP	31	336	6
TAP	31	336	7
TAP	32	0	0
TAP	32	0	7
TAP	32	72	1
TAP	32	72	3
TAP	32	144	0
TAP	32	144	7
TAP	32	216	4
TAP	32	216	6
TAP	32	288	0
TAP	32	288	7
TAP	32	336	1
TAP	32	336	6
HLD	33	0	2	288
HLD	33	0	5	96
HLD	33	192	1	288
HLD	34	0	0	288
HLD	34	192	7	288
HLD	35	0	6	288
HLD	35	192	5	192
STR	36	0	4
SCL	36	0	4	96	192	6
HLD	37	0	2	96
HLD	37	0	5	288
HLD	37	192	6	288
HLD	38	0	7	288
HLD	38	192	0	288
HLD	39	0	1	288
HLD	39	192	2	192
STR	40	0	3
SCR	40	0	3	96	192	1
TAP	41	0	2
HLD	41	0	4	96
HLD	41	96	7	192
TAP	41	192	0
HLD	41	288	3	192
TAP	42	0	2
HLD	42	96	6	192
TAP	42	192	7
HLD	42	288	2	192
TAP	43	0	1
HLD	43	96	5	192
TAP	43	192	4
HLD	43	288	0	192
TAP	44	0	7
HLD	44	96	4	192
HLD	44	192	3	96
HLD	45	0	3	96
TAP	45	0	5
HLD	45	96	0	192
TAP	45	192	7
HLD	45	288	4	192
TAP	46	0	5
HLD	46	96	1	192
TAP	46	192	0
HLD	46	288	5	192
TAP	47	0	6
HLD	47	96	2	192
TAP	47	192	3
HLD	47	288	7	192
TAP	48	0	0
HLD	48	96	3	192
HLD	48	192	4	96
BST	49	0	1
SCR	49	0	1	96	288	7
BST	49	0	6
SCL	49	0	6	96	288	0
HLD	50	288	0	72
TAP	50	360	3
TAP	51	0	1
HLD	51	48	7	72
TAP	51	120	4
TAP	51	144	6
HLD	51	192	0	72
TAP	51	264	3
TAP	51	288	1
HLD	51	336	7	72
TAP	52	24	4
TAP	52	48	6
TAP	52	96	0
TAP	52	144	2
TAP	52	144	3
HLD	52	192	7	72
TAP	52	264	3
TAP	52	288	5
HLD	52	336	0	72
TAP	53	24	4
TAP	53	48	2
HLD	53	96	7	72
TAP	53	168	3
TAP	53	192	5
HLD	53	240	0	72
TAP	53	312	4
TAP	53	336	2
TAP	54	0	7
TAP	54	48	4
TAP	54	48	5
HLD	54	96	0	72
TAP	54	168	5
TAP	54	192	3
TAP	54	192	4
TAP	54	240	1
TAP	54	264	1
TAP	54	288	1
TAP	54	336	3
TAP	54	336	4
TAP	55	0	6
TAP	55	24	6
TAP	55	48	6
TAP	55	96	3
TAP	55	96	4
TAP	55	144	1
TAP	55	144	6
STR	55	192	0
SSL	55	192	0	96	48	4
STR	55	192	7
SSR	55	192	7	96	48	3
HLD	56	0	1	72
TAP	56	0	3
TAP	56	72	7
TAP	56	96	2
TAP	56	144	4
HLD	56	144	6	72
TAP	56	216	0
TAP	56	240	5
HLD	56	288	1	72
TAP	56	288	3
TAP	56	360	7
TAP	57	0	2
TAP	57	48	4
HLD	57	48	6	72
TAP	57	120	0
TAP	57	144	5
TAP	57	192	1
TAP	57	192	3
TAP	57	240	0
TAP	57	240	7
TAP	57	288	4
HLD	57	288	6	72
TAP	57	360	2
TAP	58	0	7
HLD	58	48	1	72
TAP	58	48	3
TAP	58	120	5
TAP	58	144	0
TAP	58	192	4
HLD	58	192	6	72
TAP	58	264	2
TAP	58	288	7
HLD	58	336	1	72
TAP	58	336	3
TAP	59	24	5
TAP	59	48	0
TAP	59	96	5
TAP	59	96	7
TAP	59	144	3
TAP	59	144	4
TAP	59	192	0
HLD	59	192	2	72
TAP	59	264	6
TAP	59	288	3
HLD	59	336	5	72
TAP	59	336	7
TAP	60	24	1
TAP	60	48	4
TAP	60	96	0
HLD	60	96	2	72
TAP	60	168	6
TAP	60	192	3
HLD	60	240	5	72
TAP	60	240	7
TAP	60	312	1
TAP	60	336	4
TAP	61	0	0
TAP	61	0	2
TAP	61	48	3
TAP	61	48	4
HLD	61	96	5	72
TAP	61	96	7
TAP	61	168	1
TAP	61	192	3
TAP	61	240	0
HLD	61	240	2	72
TAP	61	312	6
TAP	61	336	4
HLD	62	0	5	72
TAP	62	0	7
TAP	62	72	1
TAP	62	96	3
TAP	62	144	0
TAP	62	144	2
STR	62	192	3
SI_	62	192	3	96	24	0
STR	62	192	4
SI_	62	192	4	96	24	7
BRK	63	0	0
BRK	63	24	0
BRK	63	48	0
BST	63	72	0
SI_	63	72	0	96	24	3
STR	63	144	7
SI_	63	144	7	96	24	4
STR	63	216	0
SI_	63	216	0	96	24	2
STR	63	288	7
SI_	63	288	7	96	24	5
STR	63	360	0
SI_	63	360	0	96	24	3
STR	64	48	7
SI_	64	48	7	96	24	4
STR	64	120	0
SI_	64	120	0	96	24	4
TAP	64	192	7
TAP	64	216	7
TAP	64	240	7
TAP	64	264	7
STR	64	288	7
SI_	64	288	7	96	24	5
STR	64	360	1
SI_	64	360	1	96	24	3
STR	65	48	0
SI_	65	48	0	96	24	4
STR	65	120	1
SI_	65	120	1	96	24	5
STR	65	192	0
SI_	65	192	0	96	24	6
STR	65	264	2
SI_	65	264	2	96	24	4
STR	65	336	0
SI_	65	336	0	96	24	5
STR	66	24	1
SI_	66	24	1	96	24	4
TAP	66	96	7
TAP	66	120	7
TAP	66	144	7
TAP	66	168	7
STR	66	192	7
SI_	66	192	7	96	24	5
STR	66	264	1
SI_	66	264	1	96	24	3
STR	66	336	7
SI_	66	336	7	96	24	4
STR	67	24	0
SI_	67	24	0	96	24	3
STR	67	96	7
SI_	67	96	7	96	24	5
STR	67	168	0
SI_	67	168	0	96	24	4
STR	67	240	7
SI_	67	240	7	96	24	4
STR	67	312	0
SI_	67	312	0	96	24	3
TAP	68	0	7
TAP	68	24	7
TAP	68	48	7
TAP	68	72	7
TAP	68	96	7
TAP	68	108	6
TAP	68	120	5
TAP	68	132	4
TAP	68	144	3
TAP	68	156	2
TAP	68	168	1
TAP	68	180	0
BRK	68	192	3
BRK	68	192	7
TAP	68	288	0
TAP	68	288	4
TAP	68	312	1
TAP	68	312	5
TAP	68	336	2
TAP	68	336	6
TAP	68	360	3
TAP	68	360	7
TAP	69	0	0
TAP	69	0	4
TAP	69	48	2
TAP	69	48	6
TAP	69	96	0
TAP	69	96	1
TAP	69	168	4
TAP	69	168	5
TAP	69	240	2
TAP	69	240	3
STR	69	312	0
SF_	69	312	0	96	24	4
TAP	69	312	7
STR	70	96	2
SI_	70	96	2	96	24	4
TAP	70	96	6
TAP	70	168	7
TAP	70	192	2
STR	70	192	6
SI_	70	192	6	96	24	3
TAP	70	264	0
STR	70	288	1
SI_	70	288	1	96	24	4
TAP	70	288	6
TAP	70	360	6
TAP	71	0	1
STR	71	0	7
SI_	71	0	7	96	24	3
TAP	71	72	2
STR	71	96	3
SCR	71	96	3	96	48	6
STR	71	96	7
SCR	71	96	7	96	48	2
TAP	71	336	1
TAP	71	336	2
TAP	72	0	5
TAP	72	0	6
TAP	72	48	0
TAP	72	48	7
TAP	72	96	1
STR	72	96	5
SI_	72	96	5	96	24	3
TAP	72	168	0
STR	72	192	1
SI_	72	192	1	96	24	4
TAP	72	192	5
TAP	72	264	7
TAP	72	288	1
STR	72	288	6
SI_	72	288	6	96	24	3
TAP	72	360	1
STR	73	0	0
SI_	73	0	0	96	24	4
TAP	73	0	6
TAP	73	72	5
STR	73	96	0
SCL	73	96	0	96	48	5
STR	73	96	4
SCL	73	96	4	96	48	1
TAP	73	288	3
TAP	73	288	5
TAP	73	336	1
TAP	73	336	3
TAP	74	0	3
TAP	74	0	6
TAP	74	48	0
TAP	74	48	3
TAP	74	96	3
STR	74	96	7
SI_	74	96	7	96	24	3
TAP	74	168	2
TAP	74	192	2
TAP	74	192	7
TAP	74	264	2
TAP	74	264	4
TAP	74	288	2
TAP	74	288	4
TAP	74	336	6
TAP	75	0	4
TAP	75	0	5
TAP	75	48	1
STR	75	96	0
SI_	75	96	0	96	24	4
STR	75	96	5
SI_	75	96	5	96	24	7
TAP	75	168	0
TAP	75	168	5
TAP	75	192	0
TAP	75	192	5
TAP	75	288	2
TAP	75	312	3
TAP	75	336	1
TAP	75	360	4
TAP	76	0	0
TAP	76	48	1
TAP	76	48	5
TAP	76	96	3
STR	76	96	7
SCR	76	96	7	96	24	2
TAP	76	168	3
TAP	76	192	3
STR	76	192	7
SCL	76	192	7	96	24	4
TAP	76	264	3
TAP	76	288	3
STR	76	288	7
SI_	76	288	7	96	24	3
TAP	76	360	3
TAP	77	0	3
TAP	77	0	7
STR	77	96	0
SCL	77	96	0	96	24	5
TAP	77	96	4
TAP	77	168	4
STR	77	192	0
SCR	77	192	0	96	24	3
TAP	77	192	4
TAP	77	264	4
STR	77	288	0
SI_	77	288	0	96	24	4
TAP	77	288	4
TAP	77	360	4
TAP	78	0	0
TAP	78	0	4
TAP	78	96	0
STR	78	96	6
SCL	78	96	6	96	24	3
TAP	78	168	0
STR	78	192	1
SUR	78	192	1	96	24	5
TAP	78	192	6
TAP	78	264	7
TAP	78	288	1
STR	78	288	6
SCL	78	288	6	96	24	3
TAP	78	360	2
STR	79	0	1
SI_	79	0	1	96	24	5
TAP	79	0	6
TAP	79	72	6
STR	79	96	1
SCL	79	96	1	96	48	6
STR	79	96	5
SCL	79	96	5	96	48	2
TAP	79	192	1
TAP	79	192	5
TAP	79	336	5
TAP	79	336	6
TAP	80	0	1
TAP	80	0	2
TAP	80	48	0
TAP	80	48	7
STR	80	96	1
SCR	80	96	1	96	24	4
TAP	80	96	7
TAP	80	168	7
TAP	80	192	1
STR	80	192	6
SUL	80	192	6	96	24	2
TAP	80	264	0
STR	80	288	1
SCR	80	288	1	96	24	4
TAP	80	288	6
TAP	80	360	5
TAP	81	0	1
STR	81	0	6
SI_	81	0	6	96	24	2
TAP	81	72	1
STR	81	96	2
SCR	81	96	2	96	48	5
STR	81	96	6
SCR	81	96	6	96	48	1
TAP	81	192	2
TAP	81	192	6
TAP	81	288	2
TAP	81	288	4
TAP	81	336	4
TAP	81	336	6
TAP	82	0	1
TAP	82	0	4
TAP	82	48	4
TAP	82	48	7
STR	82	96	1
SCR	82	96	1	96	24	4
TAP	82	96	5
TAP	82	168	5
STR	82	192	1
SCL	82	192	1	96	24	6
TAP	82	192	5
TAP	82	264	5
STR	82	288	1
SI_	82	288	1	96	24	5
TAP	82	288	5
TAP	82	360	5
TAP	83	0	1
TAP	83	0	5
TAP	83	96	2
STR	83	96	6
SCL	83	96	6	96	24	3
TAP	83	168	2
TAP	83	192	2
STR	83	192	6
SCR	83	192	6	96	24	1
TAP	83	264	2
TAP	83	288	2
STR	83	288	6
SI_	83	288	6	96	24	2
TAP	83	360	2
TAP	84	0	2
TAP	84	0	6
STR	84	96	1
SI_	84	96	1	96	24	5
TAP	84	96	7
TAP	84	168	6
TAP	84	192	1
STR	84	192	7
SI_	84	192	7	96	24	3
TAP	84	264	2
STR	84	288	3
SCR	84	288	3	96	48	6
STR	84	288	7
SCR	84	288	7	96	48	2
TAP	85	0	3
TAP	85	0	7
STR	85	96	6
SI_	85	96	6	96	24	2
TAP	85	168	1
STR	85	192	0
SI_	85	192	0	96	24	4
TAP	85	192	6
TAP	85	264	5
STR	85	288	0
SCL	85	288	0	96	48	5
STR	85	288	4
SCL	85	288	4	96	48	1
TAP	86	0	0
TAP	86	0	4
TAP	86	96	0
TAP	86	120	7
TAP	86	144	1
TAP	86	168	6
TAP	86	192	0
TAP	86	240	7
TAP	86	264	5
TAP	86	288	7
TAP	86	336	0
TAP	86	360	2
TAP	87	0	0
TAP	87	48	6
TAP	87	72	4
TAP	87	96	6
TAP	87	144	1
TAP	87	168	3
TAP	87	192	1
TAP	87	240	4
TAP	87	264	3
TAP	87	288	4
TAP	87	312	3
TAP	87	336	4
TAP	87	360	2
TAP	88	0	5
TAP	88	24	3
TAP	88	48	4
TAP	88	72	3
TAP	88	96	4
TAP	88	120	5
TAP	88	144	6
TAP	88	168	7
TAP	88	192	0
TAP	88	216	1
TAP	88	240	2
TAP	88	264	3
TAP	88	288	4
TAP	88	300	5
TAP	88	312	6
TAP	88	324	7
TAP	88	336	0
TAP	88	348	1
TAP	88	360	2
TAP	88	372	3
STR	89	0	4
SUL	89	0	4	96	288	1
TAP	89	12	5
TAP	89	24	6
TAP	89	36	7
TAP	89	48	0
TAP	89	60	1
TAP	89	72	2
TAP	89	84	3
BRK	89	96	4

T_REC_TAP	636
T_REC_BRK	6
T_REC_XTP	0
T_REC_HLD	56
T_REC_XHO	0
T_REC_STR	122
T_REC_BST	3
T_REC_XST	0
T_REC_TTP	0
T_REC_THO	0
T_REC_SLD	125
T_REC_ALL	948
T_NUM_TAP	758
T_NUM_BRK	9
T_NUM_HLD	56
T_NUM_SLD	125
T_NUM_ALL	948
T_JUDGE_TAP	767
T_JUDGE_HLD	184
T_JUDGE_SLD	125
T_JUDGE_ALL	1076
TTM_EACHPAIRS	200
TTM_SCR_TAP	379000
TTM_SCR_BRK	23400
TTM_SCR_HLD	56000
TTM_SCR_SLD	187500
TTM_SCR_ALL	645900
TTM_SCR_S	625650
TTM_SCR_SS	645000
TTM_RAT_ACV	10013

