VERSION	0.00.00	1.03.00
FES_MODE	0
BPM_DEF	160.000	160.000	160.000	160.000
MET_DEF	4	4
RESOLUTION	384
CLK_DEF	384
COMPATIBLE_CODE	MA2

BPM	0	0	160.000
MET	0	0	4	4
MET	49	0	4	7
MET	68	96	4	4

TAP	1	0	5
TAP	1	96	3
TAP	1	96	4
TAP	1	192	2
TAP	1	288	3
TAP	1	288	4
TAP	2	0	6
TAP	2	96	4
TAP	2	96	5
TAP	2	192	1
TAP	2	288	2
TAP	2	288	3
TAP	3	0	7
TAP	3	96	4
TAP	3	96	6
TAP	3	192	0
TAP	3	288	1
TAP	3	288	3
STR	4	0	7
SI_	4	0	7	96	48	3
STR	4	96	1
SI_	4	96	1	96	48	5
TAP	4	192	6
TAP	4	288	0
TAP	4	312	7
TAP	4	336	0
TAP	4	360	7
TAP	5	0	0
TAP	5	96	1
TAP	5	96	4
TAP	5	192	7
TAP	5	288	3
TAP	5	288	6
TAP	6	0	0
TAP	6	96	1
TAP	6	96	3
TAP	6	192	7
TAP	6	288	4
TAP	6	288	6
TAP	7	0	0
TAP	7	96	1
TAP	7	96	2
TAP	7	192	7
TAP	7	288	5
TAP	7	288	6
TAP	8	0	2
TAP	8	24	3
TAP	8	48	2
TAP	8	96	5
TAP	8	120	4
TAP	8	144	5
STR	8	192	1
SI_	8	192	1	96	48	4
STR	8	192	6
SI_	8	192	6	96	48	3
BRK	9	0	1
BRK	9	0	6
TAP	9	72	5
TAP	9	96	4
TAP	9	168	4
TAP	9	192	3
TAP	9	264	3
TAP	9	288	2
TAP	9	360	2
STR	10	0	3
SI_	10	0	3	96	48	0
SI_	10	0	3	96	48	6
TAP	10	240	6
TAP	10	288	5
TAP	10	288	7
TAP	10	336	0
TAP	10	336	4
TAP	11	0	1
TAP	11	0	3
TAP	11	72	1
TAP	11	96	0
TAP	11	168	0
TAP	11	192	7
TAP	11	264	7
TAP	11	288	6
TAP	11	360	6
STR	12	0	7
SI_	12	0	7	96	48	2
SI_	12	0	7	96	48	4
TAP	12	288	1
TAP	12	288	6
TAP	13	0	2
TAP	13	0	5
TAP	13	72	2
TAP	13	96	3
TAP	13	168	3
TAP	13	192	4
TAP	13	264	4
TAP	13	288	5
TAP	13	360	5
STR	14	0	4
SI_	14	0	4	96	48	1
SI_	14	0	4	96	48	7
TAP	14	288	1
TAP	14	288	6
STR	15	0	7
SI_	15	0	7	96	48	3
TAP	15	96	2
STR	15	192	0
SI_	15	192	0	96	48	4
TAP	15	288	5
STR	16	0	6
SI_	16	0	6	96	48	3
STR	16	96	1
SI_	16	96	1	96	48	4
STR	16	192	7
SI_	16	192	7	96	48	3
TAP	16	288	0
BRK	17	0	1
BRK	17	0	6
TAP	17	72	4
TAP	17	96	3
TAP	17	168	3
TAP	17	192	2
TAP	17	264	2
TAP	17	288	1
TAP	17	360	1
STR	18	0	0
SI_	18	0	0	96	48	4
TAP	18	96	3
TAP	18	240	5
TAP	18	288	4
TAP	18	288	6
TAP	18	336	3
TAP	18	336	7
TAP	19	0	0
TAP	19	0	2
TAP	19	72	1
TAP	19	96	0
TAP	19	168	0
TAP	19	192	7
TAP	19	264	7
TAP	19	288	6
TAP	19	360	6
STR	20	0	7
SI_	20	0	7	96	48	3
TAP	20	96	4
TAP	20	288	3
TAP	20	288	4
TAP	21	0	1
TAP	21	0	6
TAP	21	72	6
TAP	21	96	7
TAP	21	168	7
TAP	21	192	0
TAP	21	264	0
TAP	21	288	1
TAP	21	360	1
HLD	22	0	2	96
TAP	22	96	1
TAP	22	168	1
TAP	22	192	0
TAP	22	264	0
TAP	22	288	7
TAP	22	360	7
STR	23	0	6
SI_	23	0	6	96	48	3
TAP	23	96	2
STR	23	192	1
SI_	23	192	1	96	48	4
TAP	23	288	5
TAP	24	0	7
STR	24	96	0
SCL	24	96	0	96	96	4
STR	24	96	7
SCR	24	96	7	96	96	3
TAP	25	0	1
TAP	25	0	4
TAP	25	72	2
TAP	25	96	3
TAP	25	144	3
TAP	25	144	6
TAP	25	216	5
TAP	25	240	4
TAP	25	288	1
TAP	25	288	4
TAP	25	360	2
TAP	26	0	3
TAP	26	48	3
TAP	26	48	6
TAP	26	120	5
TAP	26	144	4
STR	26	192	1
SI_	26	192	1	96	48	4
TAP	26	192	4
TAP	27	0	3
TAP	27	0	6
TAP	27	72	5
TAP	27	96	4
TAP	27	144	1
TAP	27	144	4
TAP	27	216	2
TAP	27	240	3
TAP	27	288	3
TAP	27	288	6
TAP	27	360	5
TAP	28	0	4
TAP	28	48	1
TAP	28	48	4
TAP	28	120	2
TAP	28	144	3
STR	28	192	3
SI_	28	192	3	96	48	7
TAP	28	192	6
TAP	29	0	0
TAP	29	0	5
TAP	29	72	6
TAP	29	96	7
TAP	29	144	2
TAP	29	144	7
TAP	29	216	1
TAP	29	240	0
TAP	29	288	0
TAP	29	288	5
TAP	29	360	6
TAP	30	0	7
TAP	30	48	2
TAP	30	48	7
TAP	30	120	1
TAP	30	144	0
TAP	30	192	0
STR	30	192	5
SI_	30	192	5	96	48	0
TAP	31	0	2
TAP	31	0	7
TAP	31	72	1
TAP	31	96	0
TAP	31	144	0
TAP	31	144	5
TAP	31	216	6
TAP	31	240	7
TAP	31	288	2
TAP	31	288	7
TAP	31	360	1
HLD	32	0	0	72
HLD	32	72	2	72
HLD	32	144	4	72
HLD	32	216	6	72
TAP	32	288	0
TAP	32	336	1
STR	33	0	5
SUR	33	0	5	96	96	4
STR	33	192	1
SUR	33	192	1	96	96	0
STR	34	0	6
SUR	34	0	6	96	96	5
STR	34	192	2
SUR	34	192	2	96	96	1
STR	35	0	7
SUR	35	0	7	96	96	6
STR	35	192	3
SUR	35	192	3	96	96	2
STR	36	0	5
SCR	36	0	5	96	96	1
STR	37	0	2
SUL	37	0	2	96	96	3
STR	37	192	6
SUL	37	192	6	96	96	7
STR	38	0	1
SUL	38	0	1	96	96	2
STR	38	192	5
SUL	38	192	5	96	96	6
STR	39	0	0
SUL	39	0	0	96	96	1
STR	39	192	4
SUL	39	192	4	96	96	5
STR	40	0	2
SCL	40	0	2	96	96	6
STR	41	0	4
SUR	41	0	4	96	48	0
TAP	41	96	3
STR	41	192	3
SUL	41	192	3	96	48	7
TAP	41	288	4
STR	42	0	4
SUR	42	0	4	96	48	1
TAP	42	96	3
STR	42	192	3
SUL	42	192	3	96	48	6
TAP	42	288	4
STR	43	0	4
SUR	43	0	4	96	48	2
TAP	43	96	3
STR	43	192	3
SUL	43	192	3	96	48	5
TAP	43	288	4
STR	44	0	4
SCR	44	0	4	96	96	2
TAP	44	96	3
HLD	44	192	3	96
TAP	44	288	4
STR	45	0	7
SUL	45	0	7	96	48	3
TAP	45	96	0
STR	45	192	0
SUR	45	192	0	96	48	4
TAP	45	288	7
STR	46	0	7
SUL	46	0	7	96	48	2
TAP	46	96	0
STR	46	192	0
SUR	46	192	0	96	48	5
TAP	46	288	7
STR	47	0	7
SUL	47	0	7	96	48	1
TAP	47	96	0
STR	47	192	0
SUR	47	192	0	96	48	6
TAP	47	288	7
STR	48	0	7
SCL	48	0	7	96	96	1
TAP	48	96	0
HLD	48	192	0	96
TAP	48	288	7
BRK	49	0	0
BRK	49	0	7
HLD	50	288	2	72
TAP	50	360	3
TAP	51	0	2
HLD	51	48	5	72
TAP	51	120	4
TAP	51	144	5
HLD	51	192	2	72
TAP	51	264	3
TAP	51	288	2
HLD	51	336	5	72
TAP	52	24	4
TAP	52	48	5
TAP	52	96	3
TAP	52	96	4
TAP	52	144	3
TAP	52	144	4
HLD	52	192	1	72
TAP	52	264	2
TAP	52	288	1
HLD	52	336	6	72
TAP	53	24	5
TAP	53	48	6
HLD	53	96	1	72
TAP	53	168	2
TAP	53	192	1
HLD	53	240	6	72
TAP	53	312	5
TAP	53	336	6
TAP	54	0	3
TAP	54	0	4
TAP	54	48	3
TAP	54	48	4
HLD	54	96	1	96
STR	54	96	6
SI_	54	96	6	96	48	3
TAP	54	288	1
TAP	54	336	0
TAP	55	0	7
STR	55	48	1
SI_	55	48	1	96	48	4
HLD	55	48	6	96
TAP	55	240	6
TAP	55	288	7
TAP	55	336	0
HLD	56	0	1	96
TAP	56	72	0
TAP	56	96	0
HLD	56	144	6	96
TAP	56	216	7
TAP	56	240	7
HLD	56	288	2	96
TAP	56	360	1
TAP	57	0	1
HLD	57	48	5	96
TAP	57	120	6
TAP	57	144	6
TAP	57	192	3
TAP	57	192	4
TAP	57	240	3
TAP	57	240	4
HLD	57	288	2	96
TAP	57	360	3
TAP	58	0	3
HLD	58	48	5	96
TAP	58	120	4
TAP	58	144	4
HLD	58	192	1	96
TAP	58	264	2
TAP	58	288	2
HLD	58	336	6	96
TAP	59	24	5
TAP	59	48	5
TAP	59	96	0
TAP	59	96	7
TAP	59	144	0
TAP	59	144	7
HLD	59	192	1	96
TAP	59	264	0
TAP	59	288	0
HLD	59	336	6	96
TAP	60	24	7
TAP	60	48	7
HLD	60	96	2	96
TAP	60	168	3
TAP	60	192	3
HLD	60	240	5	96
TAP	60	312	4
TAP	60	336	4
TAP	61	0	1
TAP	61	0	6
TAP	61	48	1
TAP	61	48	6
HLD	61	96	2	96
TAP	61	168	3
TAP	61	192	3
HLD	61	240	5	96
TAP	61	312	4
TAP	61	336	4
HLD	62	0	1	96
TAP	62	72	0
STR	62	96	0
SI_	62	96	0	96	48	4
TAP	62	192	3
TAP	62	288	2
BRK	63	0	1
BRK	63	0	6
HLD	63	72	2	48
HLD	63	72	4	48
HLD	63	144	3	48
HLD	63	144	5	48
HLD	63	216	2	48
HLD	63	216	4	48
HLD	63	288	3	48
HLD	63	288	5	48
HLD	63	360	2	48
HLD	63	360	4	48
HLD	64	48	3	48
HLD	64	48	5	48
HLD	64	120	2	48
HLD	64	120	4	48
TAP	64	192	3
TAP	64	192	5
TAP	64	240	3
TAP	64	240	5
HLD	64	288	1	48
HLD	64	288	7	48
HLD	64	360	0	48
HLD	64	360	6	48
HLD	65	48	1	48
HLD	65	48	7	48
HLD	65	120	0	48
HLD	65	120	6	48
HLD	65	192	1	48
HLD	65	192	7	48
HLD	65	264	0	48
HLD	65	264	6	48
HLD	65	336	1	48
HLD	65	336	7	48
HLD	66	24	0	48
HLD	66	24	6	48
TAP	66	96	1
TAP	66	96	7
TAP	66	144	1
TAP	66	144	7
HLD	66	192	4	48
HLD	66	192	5	48
HLD	66	264	2	48
HLD	66	264	3	48
HLD	66	336	0	48
HLD	66	336	1	48
HLD	67	24	6	48
HLD	67	24	7	48
HLD	67	96	4	48
HLD	67	96	5	48
HLD	67	168	2	48
HLD	67	168	3	48
HLD	67	240	0	48
HLD	67	240	1	48
HLD	67	312	6	48
HLD	67	312	7	48
STR	68	0	4
SXR	68	0	4	96	192	1
STR	68	0	5
SXL	68	0	5	96	192	0
TAP	68	48	4
TAP	68	48	5
BRK	69	0	2
BRK	69	0	7
HLD	69	96	0	48
HLD	69	96	5	48
HLD	69	168	2	48
HLD	69	168	7	48
HLD	69	240	1	48
HLD	69	240	4	48
HLD	69	312	3	48
HLD	69	312	6	48
TAP	70	0	1
TAP	70	0	7
TAP	70	48	1
TAP	70	48	7
BST	70	96	0
SF_	70	96	0	96	192	4
TAP	71	96	3
TAP	71	96	6
TAP	71	144	5
TAP	71	168	4
TAP	71	192	5
TAP	71	240	2
TAP	71	264	3
TAP	71	288	2
TAP	71	336	5
TAP	71	360	4
TAP	72	0	5
TAP	72	48	2
TAP	72	72	3
TAP	72	96	1
TAP	72	144	5
TAP	72	168	4
TAP	72	192	6
TAP	72	240	2
TAP	72	264	3
TAP	72	288	1
TAP	72	336	5
TAP	72	360	4
TAP	73	0	6
TAP	73	48	2
TAP	73	72	3
TAP	73	96	1
TAP	73	144	5
TAP	73	168	4
TAP	73	192	6
TAP	73	240	2
TAP	73	264	3
TAP	73	288	1
TAP	73	336	5
TAP	73	360	4
TAP	74	0	6
TAP	74	48	1
TAP	74	72	0
TAP	74	96	1
TAP	74	144	6
TAP	74	168	7
TAP	74	192	6
TAP	74	240	1
TAP	74	264	0
TAP	74	288	1
TAP	74	336	6
TAP	74	360	7
TAP	75	0	6
TAP	75	48	1
TAP	75	72	0
TAP	75	96	1
TAP	75	144	6
TAP	75	168	7
TAP	75	192	6
TAP	75	240	1
TAP	75	264	0
TAP	75	288	1
TAP	75	336	6
TAP	75	360	7
TAP	76	0	6
TAP	76	48	1
TAP	76	72	0
TAP	76	96	2
TAP	76	144	6
TAP	76	168	7
TAP	76	192	5
TAP	76	240	1
TAP	76	264	0
TAP	76	288	2
TAP	76	336	6
TAP	76	360	7
TAP	77	0	5
TAP	77	48	1
TAP	77	72	0
STR	77	96	2
SI_	77	96	2	96	48	7
STR	77	192	5
SI_	77	192	5	96	48	0
STR	77	288	1
SI_	77	288	1	96	48	4
TAP	78	0	6
BRK	78	96	3
BRK	78	96	6
TAP	78	144	5
TAP	78	168	4
TAP	78	192	5
TAP	78	240	0
TAP	78	288	1
TAP	78	288	4
TAP	78	336	2
TAP	78	360	3
TAP	79	0	2
TAP	79	48	7
TAP	79	96	3
TAP	79	96	6
TAP	79	144	5
TAP	79	168	4
TAP	79	192	5
TAP	79	240	0
TAP	79	288	1
TAP	79	288	4
TAP	79	336	2
TAP	79	360	3
TAP	80	0	2
TAP	80	48	7
TAP	80	96	3
STR	80	96	6
SI_	80	96	6	96	48	4
STR	80	192	0
SI_	80	192	0	96	48	2
STR	80	288	7
SI_	80	288	7	96	48	3
TAP	80	336	7
TAP	81	0	0
TAP	81	48	0
TAP	81	96	1
TAP	81	96	4
TAP	81	144	2
TAP	81	168	3
TAP	81	192	2
TAP	81	240	7
TAP	81	288	3
TAP	81	288	6
TAP	81	336	5
TAP	81	360	4
TAP	82	0	5
TAP	82	48	6
TAP	82	96	0
TAP	82	96	5
TAP	82	144	6
TAP	82	168	7
TAP	82	192	6
TAP	82	240	3
TAP	82	288	2
TAP	82	288	7
TAP	82	336	1
TAP	82	360	0
TAP	83	0	1
TAP	83	48	4
TAP	83	96	0
TAP	83	96	5
TAP	83	144	6
TAP	83	168	7
TAP	83	192	6
TAP	83	240	3
TAP	83	288	2
TAP	83	288	7
TAP	83	336	1
TAP	83	360	0
TAP	84	0	1
TAP	84	48	4
STR	84	96	0
SI_	84	96	0	96	48	4
TAP	84	96	5
TAP	84	192	7
TAP	84	288	3
TAP	84	288	6
TAP	84	360	4
TAP	84	360	5
TAP	85	0	4
TAP	85	0	5
TAP	85	48	6
TAP	85	96	2
STR	85	96	7
SI_	85	96	7	96	48	3
TAP	85	192	0
TAP	85	288	1
TAP	85	288	4
TAP	85	360	2
TAP	85	360	3
TAP	86	0	2
TAP	86	0	3
TAP	86	72	1
TAP	86	72	6
TAP	86	96	1
TAP	86	96	6
TAP	86	168	0
TAP	86	168	7
BST	86	192	0
SCL	86	192	0	96	96	4
BST	86	192	7
SCR	86	192	7	96	96	3
STR	87	96	1
SI_	87	96	1	96	48	4
STR	87	192	5
SI_	87	192	5	96	48	0
STR	87	288	1
SI_	87	288	1	96	48	4
SI_	87	288	1	96	48	6
TAP	88	96	5
TAP	88	144	2
TAP	88	168	3
TAP	88	192	2
TAP	88	240	5
TAP	88	264	4
TAP	88	288	5
TAP	88	336	0
TAP	88	360	7
TAP	89	0	0
TAP	89	24	7
TAP	89	48	0
TAP	89	72	7
STR	89	96	0
SF_	89	96	0	96	288	4

T_REC_TAP	466
T_REC_BRK	12
T_REC_XTP	0
T_REC_HLD	86
T_REC_XHO	0
T_REC_STR	66
T_REC_BST	3
T_REC_XST	0
T_REC_TTP	0
T_REC_THO	0
T_REC_SLD	73
T_REC_ALL	706
T_NUM_TAP	532
T_NUM_BRK	15
T_NUM_HLD	86
T_NUM_SLD	73
T_NUM_ALL	706
T_JUDGE_TAP	547
T_JUDGE_HLD	118
T_JUDGE_SLD	73
T_JUDGE_ALL	738
TTM_EACHPAIRS	119
TTM_SCR_TAP	266000
TTM_SCR_BRK	39000
TTM_SCR_HLD	86000
TTM_SCR_SLD	109500
TTM_SCR_ALL	500500
TTM_SCR_S	484050
TTM_SCR_SS	499000
TTM_RAT_ACV	10030

