VERSION	0.00.00	1.03.00
FES_MODE	0
BPM_DEF	160.000	160.000	160.000	160.000
MET_DEF	4	4
RESOLUTION	384
CLK_DEF	384
COMPATIBLE_CODE	MA2

BPM	0	0	160.000
MET	0	0	4	4
MET	49	0	4	7
MET	68	96	4	4

TAP	1	0	0
TAP	1	96	1
TAP	1	192	1
TAP	2	0	2
TAP	2	96	3
TAP	2	192	3
TAP	3	0	4
TAP	3	96	4
TAP	3	192	5
TAP	3	288	5
TAP	4	0	6
TAP	4	96	6
TAP	4	192	7
TAP	5	0	7
TAP	5	96	6
TAP	5	192	6
TAP	6	0	5
TAP	6	96	4
TAP	6	192	4
TAP	7	0	3
TAP	7	96	3
TAP	7	192	2
TAP	7	288	2
TAP	8	0	1
TAP	8	96	1
TAP	8	192	0
BRK	8	288	0
BRK	8	288	7
TAP	9	0	2
TAP	9	96	2
TAP	9	96	3
TAP	9	192	5
TAP	9	288	4
TAP	9	288	5
TAP	10	0	6
TAP	10	96	6
TAP	10	96	7
TAP	10	192	0
TAP	10	192	5
TAP	11	0	5
TAP	11	96	4
TAP	11	96	5
TAP	11	192	2
TAP	11	288	2
TAP	11	288	3
TAP	12	0	1
TAP	12	96	0
TAP	12	96	1
TAP	12	192	2
TAP	12	192	7
HLD	13	0	2	96
TAP	13	96	3
TAP	13	192	1
TAP	13	192	4
HLD	14	0	5	96
TAP	14	96	4
TAP	14	192	3
TAP	14	192	6
HLD	15	0	6	96
TAP	15	96	7
HLD	15	192	1	96
TAP	15	288	0
TAP	16	0	1
TAP	16	0	6
TAP	16	96	2
TAP	16	96	5
TAP	16	192	3
TAP	16	192	4
TAP	17	0	5
TAP	17	96	4
TAP	17	96	5
TAP	17	192	2
TAP	17	288	2
TAP	17	288	3
TAP	18	0	1
TAP	18	96	0
TAP	18	96	1
TAP	18	192	2
TAP	18	192	7
TAP	19	0	2
TAP	19	96	2
TAP	19	96	3
TAP	19	192	5
TAP	19	288	4
TAP	19	288	5
TAP	20	0	6
TAP	20	96	6
TAP	20	96	7
TAP	20	192	0
TAP	20	192	5
HLD	21	0	1	96
TAP	21	96	0
TAP	21	192	2
TAP	21	192	7
HLD	22	0	6	96
TAP	22	96	7
TAP	22	192	0
TAP	22	192	5
HLD	23	0	5	96
TAP	23	96	4
HLD	23	192	2	96
TAP	23	288	3
TAP	24	0	2
TAP	24	0	5
HLD	24	96	1	96
HLD	24	96	6	96
TAP	24	288	0
TAP	24	288	7
BRK	25	0	1
BRK	25	0	6
TAP	25	96	0
TAP	25	144	0
TAP	25	240	1
TAP	25	288	1
TAP	26	0	2
TAP	26	48	2
TAP	26	144	3
TAP	26	192	3
TAP	26	288	4
TAP	26	288	5
TAP	27	0	3
TAP	27	0	6
TAP	27	96	4
TAP	27	144	4
TAP	27	240	5
TAP	27	288	5
TAP	28	0	6
TAP	28	48	6
TAP	28	144	7
TAP	28	192	7
TAP	28	288	0
TAP	28	288	1
TAP	29	0	2
TAP	29	0	7
TAP	29	96	7
TAP	29	144	7
TAP	29	240	6
TAP	29	288	6
TAP	30	0	5
TAP	30	48	5
TAP	30	144	4
TAP	30	192	4
TAP	30	288	2
TAP	30	288	3
TAP	31	0	1
TAP	31	0	4
TAP	31	96	2
TAP	31	96	3
TAP	31	144	2
TAP	31	144	3
TAP	31	240	4
TAP	31	240	5
TAP	31	288	4
TAP	31	288	5
STR	32	0	3
SF_	32	0	3	96	192	7
HLD	33	0	6	192
HLD	33	192	7	192
HLD	34	0	0	192
HLD	34	192	1	192
HLD	35	0	2	192
HLD	35	192	3	192
HLD	36	0	4	192
TAP	36	192	3
HLD	37	0	2	192
HLD	37	192	3	192
HLD	38	0	4	192
HLD	38	192	5	192
HLD	39	0	6	192
HLD	39	192	7	192
HLD	40	0	0	192
TAP	40	192	7
TAP	41	0	6
TAP	41	96	7
TAP	41	192	0
TAP	41	192	5
TAP	42	0	5
TAP	42	96	4
TAP	42	192	3
TAP	42	192	6
TAP	43	0	2
TAP	43	96	3
TAP	43	192	1
TAP	43	192	4
TAP	44	0	0
TAP	44	0	1
TAP	44	96	0
TAP	44	96	1
TAP	44	192	2
TAP	44	192	7
TAP	45	0	1
TAP	45	96	0
TAP	45	192	2
TAP	45	192	7
TAP	46	0	2
TAP	46	96	3
TAP	46	192	1
TAP	46	192	4
TAP	47	0	5
TAP	47	96	4
TAP	47	192	3
TAP	47	192	6
TAP	48	0	6
TAP	48	0	7
TAP	48	96	6
TAP	48	96	7
TAP	48	192	0
TAP	48	192	5
TAP	48	288	0
TAP	48	288	5
HLD	49	0	1	576
HLD	49	0	4	576
STR	50	288	2
SCL	50	288	2	96	288	7
STR	50	288	3
SCR	50	288	3	96	288	6
TAP	52	96	0
TAP	52	96	7
STR	52	192	0
SCL	52	192	0	96	288	5
STR	52	192	1
SCR	52	192	1	96	288	4
TAP	54	0	4
TAP	54	0	5
STR	54	96	3
SI_	54	96	3	96	288	0
STR	54	96	4
SI_	54	96	4	96	288	7
TAP	55	192	0
TAP	55	192	7
TAP	55	288	1
TAP	55	288	6
TAP	56	0	2
TAP	56	0	3
TAP	56	192	4
TAP	56	192	5
TAP	57	0	2
TAP	57	96	3
TAP	57	192	2
TAP	57	288	4
TAP	57	288	5
TAP	58	96	2
TAP	58	96	3
TAP	58	288	2
TAP	58	288	5
TAP	59	0	2
TAP	59	0	5
TAP	59	96	3
TAP	59	96	4
TAP	59	192	4
TAP	59	192	5
TAP	60	0	2
TAP	60	0	3
TAP	60	192	5
TAP	60	288	4
TAP	61	0	5
TAP	61	96	4
TAP	61	96	5
TAP	61	288	2
TAP	61	288	3
TAP	62	96	3
TAP	62	96	4
TAP	62	192	2
TAP	62	192	5
TAP	62	288	1
TAP	62	288	6
STR	63	0	6
SI_	63	0	6	96	240	3
STR	63	0	7
SI_	63	0	7	96	240	2
STR	64	192	3
SI_	64	192	3	96	240	0
STR	64	192	4
SI_	64	192	4	96	240	7
STR	66	0	0
SI_	66	0	0	96	240	5
STR	66	0	1
SI_	66	0	1	96	240	4
STR	67	192	3
SI_	67	192	3	96	240	0
STR	67	192	4
SI_	67	192	4	96	240	7
TAP	68	288	0
TAP	68	288	7
TAP	69	0	0
TAP	69	0	7
HLD	69	96	1	288
HLD	69	96	6	288
BST	70	96	0
SF_	70	96	0	96	192	4
TAP	71	96	0
TAP	71	96	1
TAP	71	192	2
TAP	71	192	7
TAP	71	288	3
TAP	71	288	6
TAP	72	0	4
TAP	72	0	5
TAP	72	96	2
TAP	72	192	2
TAP	72	192	3
TAP	72	288	1
TAP	73	0	0
TAP	73	0	1
TAP	73	96	6
TAP	73	96	7
TAP	73	192	0
TAP	73	192	5
TAP	73	288	1
TAP	73	288	4
TAP	74	0	2
TAP	74	0	3
HLD	74	96	5	96
TAP	74	192	4
TAP	74	288	3
TAP	74	288	6
TAP	75	0	2
TAP	75	0	7
HLD	75	96	2	96
TAP	75	192	3
TAP	75	288	1
TAP	75	288	4
TAP	76	0	0
TAP	76	0	5
HLD	76	96	5	96
TAP	76	192	4
HLD	76	288	2	96
TAP	77	0	3
TAP	77	96	3
TAP	77	96	4
TAP	77	192	2
TAP	77	192	5
TAP	77	288	1
TAP	77	288	6
BRK	78	0	0
BRK	78	0	7
TAP	78	96	2
TAP	78	192	2
TAP	78	192	3
TAP	78	288	1
TAP	79	0	0
TAP	79	0	1
TAP	79	96	6
TAP	79	96	7
TAP	79	192	0
TAP	79	192	5
TAP	79	288	1
TAP	79	288	4
TAP	80	0	2
TAP	80	0	3
TAP	80	96	5
TAP	80	192	4
TAP	80	192	5
TAP	80	288	6
TAP	81	0	6
TAP	81	0	7
TAP	81	96	0
TAP	81	96	1
TAP	81	192	2
TAP	81	192	7
TAP	81	288	3
TAP	81	288	6
TAP	82	0	4
TAP	82	0	5
HLD	82	96	5	96
TAP	82	192	4
TAP	82	288	3
TAP	82	288	6
TAP	83	0	2
TAP	83	0	7
HLD	83	96	2	96
TAP	83	192	3
TAP	83	288	1
TAP	83	288	4
TAP	84	0	0
TAP	84	0	5
TAP	84	96	4
TAP	84	96	5
TAP	84	192	3
TAP	84	192	6
TAP	84	288	2
TAP	84	288	3
TAP	85	0	1
TAP	85	0	4
TAP	85	96	6
TAP	85	96	7
TAP	85	192	0
TAP	85	192	5
TAP	85	288	0
TAP	85	288	1
TAP	86	0	2
TAP	86	0	7
TAP	86	96	0
TAP	86	96	7
HLD	86	192	1	96
HLD	86	192	6	96
TAP	87	0	2
TAP	87	0	5
TAP	87	96	5
TAP	87	192	4
TAP	87	192	5
TAP	87	288	2
TAP	88	0	2
TAP	88	0	3
TAP	88	96	3
TAP	88	96	4
TAP	88	192	2
TAP	88	192	5
TAP	88	288	1
TAP	88	288	6
TAP	89	0	0
TAP	89	0	7
BST	89	96	0
SXL	89	96	0	96	384	3
BST	89	96	7
SXR	89	96	7	96	384	4

T_REC_TAP	338
T_REC_BRK	6
T_REC_XTP	0
T_REC_HLD	36
T_REC_XHO	0
T_REC_STR	15
T_REC_BST	3
T_REC_XST	0
T_REC_TTP	0
T_REC_THO	0
T_REC_SLD	18
T_REC_ALL	416
T_NUM_TAP	353
T_NUM_BRK	9
T_NUM_HLD	36
T_NUM_SLD	18
T_NUM_ALL	416
T_JUDGE_TAP	362
T_JUDGE_HLD	128
T_JUDGE_SLD	18
T_JUDGE_ALL	508
TTM_EACHPAIRS	132
TTM_SCR_TAP	176500
TTM_SCR_BRK	23400
TTM_SCR_HLD	36000
TTM_SCR_SLD	27000
TTM_SCR_ALL	262900
TTM_SCR_S	254150
TTM_SCR_SS	262000
TTM_RAT_ACV	10034

