VERSION	0.00.00	1.03.00
FES_MODE	0
BPM_DEF	160.000	160.000	160.000	160.000
MET_DEF	4	4
RESOLUTION	384
CLK_DEF	384
COMPATIBLE_CODE	MA2

BPM	0	0	160.000
MET	0	24	4	4
MET	49	0	4	7
MET	68	96	4	4

TAP	1	0	0
TAP	1	96	0
TAP	1	192	0
TAP	2	0	1
TAP	2	96	1
TAP	2	192	1
TAP	3	0	2
TAP	3	96	2
TAP	3	192	2
TAP	4	0	3
TAP	4	96	3
TAP	4	192	3
TAP	5	0	4
TAP	5	96	4
TAP	5	192	4
TAP	6	0	5
TAP	6	96	5
TAP	6	192	5
TAP	7	0	6
TAP	7	96	6
TAP	7	192	6
TAP	8	0	7
TAP	8	96	7
BRK	8	192	0
BRK	8	192	7
TAP	9	0	0
TAP	9	96	0
TAP	9	192	1
TAP	9	288	1
TAP	10	0	2
TAP	10	96	2
TAP	11	0	3
TAP	11	96	3
TAP	11	192	4
TAP	11	288	4
TAP	12	0	5
TAP	12	96	5
TAP	13	0	6
TAP	13	96	6
TAP	13	192	7
TAP	13	288	7
TAP	14	0	0
TAP	14	96	0
TAP	15	0	7
TAP	15	96	7
TAP	15	192	6
TAP	15	288	6
TAP	16	0	5
TAP	16	96	5
TAP	17	0	4
TAP	17	96	4
TAP	17	192	3
TAP	17	288	3
TAP	18	0	2
TAP	18	96	2
TAP	19	0	1
TAP	19	96	1
TAP	19	192	0
TAP	19	288	0
TAP	20	0	7
TAP	20	96	7
TAP	21	0	6
TAP	21	96	6
TAP	21	192	5
TAP	21	288	5
TAP	22	0	4
TAP	22	96	4
TAP	22	192	3
TAP	22	288	3
TAP	23	0	2
TAP	23	96	2
TAP	23	192	1
TAP	23	288	1
TAP	24	0	0
TAP	24	0	7
TAP	24	96	0
TAP	24	96	7
STR	25	0	0
SI_	25	0	0	96	288	4
TAP	26	192	7
TAP	26	288	7
STR	27	0	7
SI_	27	0	7	96	288	3
TAP	28	192	1
TAP	28	288	1
STR	29	0	1
SI_	29	0	1	96	288	5
TAP	30	192	6
TAP	30	288	6
STR	31	0	6
SI_	31	0	6	96	288	2
HLD	33	0	0	192
HLD	34	0	1	192
HLD	35	0	2	192
TAP	36	0	3
TAP	36	0	4
HLD	37	0	4	192
HLD	38	0	5	192
HLD	39	0	6	192
TAP	40	0	0
TAP	40	0	7
HLD	41	0	7	192
HLD	42	0	6	192
HLD	43	0	5	192
HLD	44	0	4	192
HLD	45	0	3	192
HLD	46	0	2	192
HLD	47	0	1	192
HLD	48	0	0	192
STR	49	0	0
SI_	49	0	0	96	288	3
STR	49	0	7
SI_	49	0	7	96	288	4
HLD	52	192	0	384
HLD	54	96	7	384
STR	56	0	0
SI_	56	0	0	96	288	4
STR	57	288	4
SI_	57	288	4	96	288	1
STR	59	192	1
SI_	59	192	1	96	288	6
STR	61	96	6
SI_	61	96	6	96	288	3
STR	63	0	3
SI_	63	0	3	96	288	0
STR	64	288	4
SI_	64	288	4	96	288	7
HLD	66	192	0	384
HLD	66	192	7	384
HLD	68	96	1	384
HLD	68	96	6	384
TAP	69	288	0
TAP	69	288	7
BRK	70	0	0
BRK	70	0	7
STR	70	96	0
SI_	70	96	0	96	288	4
TAP	72	96	5
TAP	72	192	5
TAP	72	288	6
TAP	73	0	6
TAP	73	96	7
HLD	73	192	7	192
TAP	74	96	0
TAP	74	192	0
TAP	74	288	1
TAP	75	0	1
TAP	75	96	2
HLD	75	192	2	192
TAP	76	96	1
TAP	76	192	1
TAP	76	288	0
TAP	77	0	0
TAP	77	96	7
HLD	77	192	7	192
TAP	78	96	6
TAP	78	192	6
TAP	78	288	5
TAP	79	0	5
TAP	79	96	4
HLD	79	192	4	192
TAP	80	96	3
TAP	80	192	3
TAP	80	288	2
TAP	81	0	2
TAP	81	96	1
HLD	81	192	1	192
TAP	82	96	0
TAP	82	192	0
TAP	82	288	7
TAP	83	0	7
TAP	83	96	6
TAP	83	192	6
TAP	83	288	5
TAP	84	96	4
TAP	84	192	4
TAP	84	288	3
TAP	85	0	3
TAP	85	96	2
TAP	85	192	2
TAP	85	288	1
TAP	86	0	1
TAP	86	96	0
TAP	86	96	7
HLD	86	192	0	480
HLD	86	192	7	480
TAP	88	96	0
TAP	88	192	7
TAP	88	288	0
TAP	89	0	7
BRK	89	96	1
BRK	89	96	6

T_REC_TAP	133
T_REC_BRK	6
T_REC_XTP	0
T_REC_HLD	27
T_REC_XHO	0
T_REC_STR	13
T_REC_BST	0
T_REC_XST	0
T_REC_TTP	0
T_REC_THO	0
T_REC_SLD	13
T_REC_ALL	192
T_NUM_TAP	146
T_NUM_BRK	6
T_NUM_HLD	27
T_NUM_SLD	13
T_NUM_ALL	192
T_JUDGE_TAP	152
T_JUDGE_HLD	144
T_JUDGE_SLD	13
T_JUDGE_ALL	309
TTM_EACHPAIRS	13
TTM_SCR_TAP	73000
TTM_SCR_BRK	15600
TTM_SCR_HLD	27000
TTM_SCR_SLD	19500
TTM_SCR_ALL	135100
TTM_SCR_S	130500
TTM_SCR_SS	134500
TTM_RAT_ACV	10044

