VERSION	0.00.00	1.03.00
FES_MODE	0
BPM_DEF	175.000	175.000	175.000	175.000
MET_DEF	4	4
RESOLUTION	384
CLK_DEF	384
COMPATIBLE_CODE	MA2

BPM	0	0	175.000
MET	0	0	4	4

STR	1	0	2
SCL	1	0	2	96	288	6
HLD	1	0	5	384
TAP	2	192	0
TAP	2	192	1
STR	2	336	3
SCR	2	336	3	96	528	2
HLD	2	336	5	624
HLD	5	0	2	384
STR	5	0	5
SCR	5	0	5	96	288	1
TAP	6	192	6
TAP	6	192	7
HLD	6	336	2	624
STR	6	336	4
SCL	6	336	4	96	528	5
TAP	9	0	0
TAP	9	48	1
TAP	9	96	2
TAP	9	144	2
TAP	9	192	4
TAP	9	216	3
TAP	9	240	4
TAP	9	288	6
TAP	9	288	7
TAP	9	336	1
TAP	10	0	7
TAP	10	48	6
TAP	10	96	5
TAP	10	144	5
TAP	10	192	3
TAP	10	216	4
TAP	10	240	3
TAP	10	288	0
TAP	10	288	1
TAP	10	336	6
TAP	11	0	2
TAP	11	24	3
TAP	11	48	2
TAP	11	96	0
TAP	11	96	1
TAP	11	144	6
TAP	11	192	5
TAP	11	216	4
TAP	11	240	5
TAP	11	288	6
TAP	11	288	7
TAP	11	336	1
TAP	12	0	2
TAP	12	24	3
TAP	12	48	2
TAP	12	96	0
TAP	12	96	1
TAP	12	144	6
TAP	12	192	5
TAP	12	216	4
TAP	12	240	5
TAP	12	288	6
TAP	12	288	7
TAP	12	336	1
TAP	13	0	3
TAP	13	0	7
TAP	13	48	3
TAP	13	48	7
TAP	13	96	2
TAP	13	96	6
TAP	13	144	2
TAP	13	144	6
TAP	13	192	1
TAP	13	192	5
TAP	13	240	1
TAP	13	240	5
TAP	13	288	0
TAP	13	288	4
TAP	13	336	0
TAP	13	336	4
TAP	14	0	1
TAP	14	0	5
TAP	14	48	2
TAP	14	48	6
TAP	14	96	3
TAP	14	96	7
TAP	14	144	0
TAP	14	144	4
TAP	14	192	3
TAP	14	192	7
TAP	14	240	2
TAP	14	240	6
TAP	14	288	1
TAP	14	288	5
TAP	14	336	0
TAP	14	336	4
TAP	15	0	2
TAP	15	24	6
TAP	15	48	0
TAP	15	72	4
TAP	15	96	3
TAP	15	120	7
TAP	15	144	1
TAP	15	168	5
TAP	15	192	2
TAP	15	216	6
TAP	15	240	0
TAP	15	264	4
TAP	15	288	0
TAP	15	312	7
TAP	15	336	0
TAP	15	360	7
TAP	16	0	0
TAP	16	12	1
TAP	16	24	2
TAP	16	36	3
TAP	16	48	4
TAP	16	60	5
TAP	16	72	6
TAP	16	84	7
TAP	16	96	0
TAP	16	108	1
TAP	16	120	2
TAP	16	132	3
TAP	16	144	4
TAP	16	156	5
TAP	16	168	6
TAP	16	180	7
BRK	16	192	0
TAP	16	288	1
TAP	16	288	5
TAP	16	312	2
TAP	16	312	6
TAP	16	336	3
TAP	16	336	7
TAP	16	360	0
TAP	16	360	4
BRK	17	0	1
BRK	17	0	5
TAP	17	48	1
TAP	17	48	5
TAP	17	144	3
TAP	17	144	7
TAP	17	192	3
TAP	17	192	7
TAP	17	288	1
TAP	17	288	5
TAP	17	336	1
TAP	17	336	5
TAP	18	48	2
TAP	18	48	6
TAP	18	96	2
TAP	18	96	6
TAP	18	192	2
TAP	18	192	5
TAP	18	240	7
TAP	18	264	0
TAP	18	288	7
TAP	18	312	0
HLD	18	336	6	144
STR	19	96	1
SI_	19	96	1	96	48	4
TAP	19	144	0
TAP	19	144	2
TAP	19	192	1
TAP	19	240	6
HLD	19	288	2	96
TAP	20	0	4
TAP	20	24	3
TAP	20	48	4
TAP	20	72	3
STR	20	96	6
SI_	20	96	6	96	48	2
TAP	20	192	0
TAP	20	192	6
TAP	20	240	0
TAP	20	336	7
TAP	20	360	0
HLD	21	0	6	96
STR	21	96	1
SI_	21	96	1	96	48	4
TAP	21	144	0
TAP	21	144	2
TAP	21	192	1
TAP	21	240	6
TAP	21	288	0
TAP	21	312	7
TAP	21	336	0
TAP	21	360	7
HLD	22	0	1	96
STR	22	96	6
SI_	22	96	6	96	48	3
TAP	22	120	7
TAP	22	144	6
TAP	22	168	7
TAP	22	192	6
TAP	22	240	0
TAP	22	288	2
TAP	22	288	3
TAP	22	336	1
HLD	22	336	4	144
STR	23	96	1
SI_	23	96	1	96	48	4
TAP	23	120	3
TAP	23	144	2
TAP	23	168	4
TAP	23	192	1
TAP	23	288	6
TAP	23	312	4
TAP	23	336	5
TAP	23	360	3
TAP	24	0	4
TAP	24	24	2
TAP	24	48	3
TAP	24	72	1
STR	24	96	7
SI_	24	96	7	96	48	3
TAP	24	192	1
TAP	24	192	7
TAP	24	240	1
TAP	24	288	2
TAP	24	288	5
TAP	24	336	0
TAP	24	360	7
HLD	25	0	1	96
STR	25	96	6
SI_	25	96	6	96	48	3
TAP	25	144	5
TAP	25	144	7
TAP	25	192	6
TAP	25	240	0
TAP	25	288	1
STR	25	336	3
SI_	25	336	3	96	48	0
STR	25	336	4
SI_	25	336	4	96	48	7
BRK	26	144	6
STR	26	144	7
SI_	26	144	7	96	48	2
STR	26	240	0
SI_	26	240	0	96	48	5
BRK	26	240	7
BRK	26	336	0
HLD	26	336	1	144
STR	27	96	6
SI_	27	96	6	96	48	3
TAP	27	144	5
TAP	27	144	7
TAP	27	192	6
TAP	27	240	1
HLD	27	288	5	96
TAP	28	0	3
TAP	28	24	4
TAP	28	48	3
TAP	28	72	4
STR	28	96	1
SI_	28	96	1	96	48	5
TAP	28	192	1
TAP	28	192	7
TAP	28	240	7
TAP	28	336	0
TAP	28	360	7
HLD	29	0	1	96
STR	29	96	6
SI_	29	96	6	96	48	3
TAP	29	144	5
TAP	29	144	7
TAP	29	192	6
TAP	29	240	1
TAP	29	288	7
TAP	29	312	0
TAP	29	336	7
TAP	29	360	0
HLD	30	0	6	96
STR	30	96	1
SI_	30	96	1	96	48	4
TAP	30	120	0
TAP	30	144	1
TAP	30	168	0
TAP	30	192	1
TAP	30	240	7
TAP	30	288	4
TAP	30	288	5
HLD	30	336	3	144
TAP	30	336	6
STR	31	96	6
SI_	31	96	6	96	48	3
TAP	31	120	4
TAP	31	144	5
TAP	31	168	3
TAP	31	192	6
TAP	31	288	1
TAP	31	312	3
TAP	31	336	2
TAP	31	360	4
TAP	32	0	3
TAP	32	24	5
TAP	32	48	4
TAP	32	72	6
STR	32	96	0
SI_	32	96	0	96	48	4
TAP	32	192	0
TAP	32	192	6
TAP	32	240	6
TAP	32	288	2
TAP	32	288	5
TAP	32	336	7
TAP	32	360	0
HLD	33	0	6	96
STR	33	96	1
SI_	33	96	1	96	48	4
TAP	33	144	0
TAP	33	144	2
TAP	33	192	1
TAP	33	240	7
TAP	33	288	6
TAP	33	336	0
TAP	33	352	1
TAP	33	368	2
STR	34	0	3
SXL	34	0	3	96	144	1
TAP	34	288	3
TAP	34	312	4
TAP	34	336	5
TAP	34	360	6
STR	35	0	7
SUR	35	0	7	96	192	7
HLD	35	336	0	240
HLD	35	336	6	240
STR	36	336	0
SUL	36	336	0	96	192	0
HLD	37	336	1	240
HLD	37	336	7	240
TAP	38	336	6
TAP	38	360	5
STR	39	0	4
SUL	39	0	4	96	192	4
HLD	39	336	3	240
HLD	39	336	5	240
STR	40	336	3
SUR	40	336	3	96	192	3
HLD	41	336	2	240
HLD	41	336	4	240
TAP	43	0	0
TAP	43	48	1
TAP	43	96	2
HLD	43	144	1	96
HLD	43	240	0	96
HLD	43	336	7	96
TAP	44	48	5
TAP	44	96	6
TAP	44	144	7
TAP	44	192	0
TAP	44	240	7
TAP	44	288	6
STR	44	336	5
SXL	44	336	5	96	144	3
TAP	45	240	1
TAP	45	288	0
HLD	45	336	7	144
HLD	46	144	1	144
HLD	46	144	6	144
TAP	47	0	0
TAP	47	0	4
TAP	47	48	0
TAP	47	48	4
TAP	47	96	1
TAP	47	96	5
TAP	47	144	1
TAP	47	144	5
TAP	47	192	2
TAP	47	192	6
TAP	47	240	2
TAP	47	240	6
TAP	47	288	3
TAP	47	288	7
TAP	47	336	3
TAP	47	336	7
TAP	48	0	2
TAP	48	0	6
TAP	48	48	1
TAP	48	48	5
TAP	48	96	0
TAP	48	96	4
TAP	48	144	3
TAP	48	144	7
TAP	48	192	0
TAP	48	192	4
TAP	48	240	1
TAP	48	240	5
TAP	48	288	2
TAP	48	288	6
TAP	48	336	3
TAP	48	336	7
TAP	49	0	5
TAP	49	24	1
TAP	49	48	7
TAP	49	72	3
TAP	49	96	4
TAP	49	120	0
TAP	49	144	6
TAP	49	168	2
TAP	49	192	5
TAP	49	216	1
TAP	49	240	7
TAP	49	264	3
TAP	49	288	7
TAP	49	312	0
TAP	49	336	7
TAP	49	360	0
TAP	50	0	7
TAP	50	12	6
TAP	50	24	5
TAP	50	36	4
TAP	50	48	3
TAP	50	60	2
TAP	50	72	1
TAP	50	84	0
TAP	50	96	7
TAP	50	108	6
TAP	50	120	5
TAP	50	132	4
TAP	50	144	3
TAP	50	156	2
TAP	50	168	1
TAP	50	180	0
BRK	50	192	7
TAP	50	288	2
TAP	50	288	6
TAP	50	312	1
TAP	50	312	5
TAP	50	336	0
TAP	50	336	4
TAP	50	360	3
TAP	50	360	7
HLD	51	0	2	96
HLD	51	0	6	96
TAP	51	144	0
TAP	51	144	4
TAP	51	240	0
TAP	51	240	4
TAP	51	288	6
TAP	51	288	7
HLD	51	336	1	96
TAP	52	48	0
TAP	52	72	1
TAP	52	96	7
TAP	52	120	1
TAP	52	144	6
TAP	52	168	1
TAP	52	192	5
TAP	52	216	1
TAP	52	240	4
TAP	52	264	1
TAP	52	288	3
TAP	52	312	1
HLD	52	336	2	96
TAP	53	48	0
TAP	53	96	1
TAP	53	96	6
TAP	53	144	5
TAP	53	168	4
TAP	53	192	5
TAP	53	240	2
TAP	53	240	3
TAP	53	288	0
TAP	53	288	7
HLD	53	336	6	96
TAP	54	48	7
TAP	54	72	6
TAP	54	96	0
TAP	54	120	6
TAP	54	144	1
TAP	54	168	6
TAP	54	192	2
TAP	54	216	6
TAP	54	240	3
TAP	54	264	6
TAP	54	288	4
TAP	54	312	6
TAP	54	336	5
TAP	54	360	6
HLD	55	0	7	96
TAP	55	96	5
TAP	55	144	2
TAP	55	168	3
TAP	55	192	2
TAP	55	240	4
TAP	55	240	5
TAP	55	288	0
TAP	55	288	7
HLD	55	336	1	144
TAP	56	96	7
STR	56	144	0
SI_	56	144	0	96	48	2
STR	56	144	6
SI_	56	144	6	96	48	2
STR	56	240	0
SCL	56	240	0	96	48	4
TAP	56	240	6
HLD	56	336	6	144
STR	57	144	1
SI_	57	144	1	96	48	5
STR	57	144	7
SI_	57	144	7	96	48	5
TAP	57	240	1
STR	57	240	7
SCR	57	240	7	96	48	3
HLD	57	336	1	96
TAP	58	48	0
TAP	58	96	2
TAP	58	96	3
TAP	58	144	4
TAP	58	144	5
TAP	58	192	6
TAP	58	192	7
TAP	58	240	1
TAP	58	264	5
TAP	58	288	0
TAP	58	312	4
TAP	58	336	2
TAP	58	360	6
BST	59	0	1
SI_	59	0	1	96	48	5
TAP	59	48	0
TAP	59	48	2
TAP	59	96	1
TAP	59	96	7
TAP	59	144	6
TAP	59	168	7
TAP	59	192	6
TAP	59	240	1
TAP	59	264	0
TAP	59	288	1
TAP	59	336	2
TAP	59	336	5
STR	60	0	6
SI_	60	0	6	96	48	2
TAP	60	48	5
TAP	60	48	7
TAP	60	96	0
TAP	60	96	6
TAP	60	144	1
TAP	60	168	0
TAP	60	192	1
TAP	60	240	6
TAP	60	264	7
TAP	60	288	6
TAP	60	336	2
STR	60	336	5
SCR	60	336	5	96	48	7
HLD	61	0	0	192
STR	61	0	7
SCR	61	0	7	96	96	2
HLD	61	240	1	48
HLD	61	288	2	48
HLD	61	336	3	96
TAP	62	48	6
TAP	62	72	5
TAP	62	96	0
TAP	62	120	1
TAP	62	144	2
TAP	62	168	3
TAP	62	192	7
TAP	62	216	6
TAP	62	240	5
TAP	62	264	4
TAP	62	288	7
TAP	62	312	0
TAP	62	336	1
TAP	62	360	2
HLD	63	0	6	96
TAP	63	96	1
TAP	63	144	3
TAP	63	168	4
TAP	63	192	3
TAP	63	240	5
TAP	63	240	6
TAP	63	288	0
TAP	63	288	7
HLD	63	336	1	144
TAP	64	96	7
STR	64	144	0
SI_	64	144	0	96	48	2
STR	64	144	6
SI_	64	144	6	96	48	2
STR	64	240	0
SCL	64	240	0	96	48	4
TAP	64	240	6
HLD	64	336	6	144
TAP	65	144	0
TAP	65	168	4
TAP	65	192	2
TAP	65	216	6
TAP	65	240	1
TAP	65	264	5
TAP	65	288	3
TAP	65	312	7
TAP	65	336	1
TAP	65	360	5
TAP	66	0	0
TAP	66	12	1
TAP	66	24	2
TAP	66	36	3
TAP	66	48	4
TAP	66	60	5
TAP	66	72	6
TAP	66	84	7
TAP	66	96	0
TAP	66	108	1
TAP	66	120	2
TAP	66	132	3
TAP	66	144	4
TAP	66	156	5
TAP	66	168	6
TAP	66	180	7
TAP	66	192	0
TAP	66	204	1
TAP	66	216	2
TAP	66	228	3
TAP	66	240	4
TAP	66	252	5
TAP	66	264	6
TAP	66	276	7
BRK	66	288	0
BRK	66	288	4
TAP	66	312	1
TAP	66	312	5
TAP	66	336	2
TAP	66	336	6
TAP	66	360	3
TAP	66	360	7
STR	67	0	0
SUL	67	0	0	96	192	0
HLD	67	0	4	576
HLD	67	336	6	240
HLD	68	336	3	624
STR	68	336	7
SUR	68	336	7	96	192	7
HLD	69	336	1	240
TAP	70	336	0
TAP	70	360	1
HLD	71	0	2	576
STR	71	0	3
SUR	71	0	3	96	192	3
HLD	71	336	0	240
STR	72	336	4
SUL	72	336	4	96	192	4
HLD	72	336	5	624
HLD	73	336	7	240
STR	75	0	2
SCR	75	0	2	96	336	7
STR	75	336	7
SSR	75	336	7	96	432	3
TAP	76	336	7
TAP	76	360	0
STR	77	0	1
SCL	77	0	1	96	336	4
STR	77	336	4
SSL	77	336	4	96	432	0
TAP	78	336	3
TAP	78	360	4
STR	79	0	5
SCL	79	0	5	96	336	0
STR	79	336	0
SSL	79	336	0	96	384	4
STR	80	336	6
SCR	80	336	6	96	384	3
STR	81	336	3
SF_	81	336	3	96	192	7
TAP	82	288	0
TAP	82	288	4
TAP	82	312	1
TAP	82	312	5
TAP	82	336	2
TAP	82	336	6
TAP	82	352	3
TAP	82	352	7
TAP	82	368	0
TAP	82	368	4
BRK	83	0	1
BRK	83	0	5

T_REC_TAP	507
T_REC_BRK	11
T_REC_XTP	0
T_REC_HLD	54
T_REC_XHO	0
T_REC_STR	52
T_REC_BST	1
T_REC_XST	0
T_REC_TTP	0
T_REC_THO	0
T_REC_SLD	53
T_REC_ALL	678
T_NUM_TAP	559
T_NUM_BRK	12
T_NUM_HLD	54
T_NUM_SLD	53
T_NUM_ALL	678
T_JUDGE_TAP	571
T_JUDGE_HLD	231
T_JUDGE_SLD	53
T_JUDGE_ALL	855
TTM_EACHPAIRS	127
TTM_SCR_TAP	279500
TTM_SCR_BRK	31200
TTM_SCR_HLD	54000
TTM_SCR_SLD	79500
TTM_SCR_ALL	444200
TTM_SCR_S	429750
TTM_SCR_SS	443000
TTM_RAT_ACV	10027

