VERSION	0.00.00	1.03.00
FES_MODE	0
BPM_DEF	175.000	175.000	175.000	175.000
MET_DEF	4	4
RESOLUTION	384
CLK_DEF	384
COMPATIBLE_CODE	MA2

BPM	0	0	175.000

STR	1	0	3
SXR	1	0	3	96	480	6
HLD	2	192	7	144
STR	2	336	6
SXL	2	336	6	96	480	3
STR	5	0	4
SXL	5	0	4	96	480	1
HLD	6	192	0	144
STR	6	336	1
SXR	6	336	1	96	480	4
HLD	8	288	3	72
HLD	8	288	4	72
TAP	9	0	3
TAP	9	0	4
TAP	9	96	3
TAP	9	192	2
TAP	9	288	2
TAP	10	0	3
TAP	10	96	3
TAP	10	192	4
TAP	10	288	4
TAP	11	0	5
TAP	11	96	5
TAP	11	192	4
TAP	11	288	4
TAP	12	0	3
TAP	12	96	3
TAP	12	192	2
TAP	12	288	3
TAP	13	0	4
TAP	13	96	3
TAP	13	192	5
TAP	13	288	2
TAP	14	0	6
TAP	14	48	6
TAP	14	96	1
TAP	14	144	1
TAP	14	192	7
TAP	14	240	7
TAP	14	288	0
TAP	14	336	0
STR	15	0	6
SCR	15	0	6	96	96	1
TAP	15	288	0
TAP	15	312	7
TAP	15	336	0
TAP	15	360	7
STR	16	0	0
SI_	16	0	0	96	48	4
STR	16	96	6
SI_	16	96	6	96	48	2
STR	16	192	1
SI_	16	192	1	96	48	4
TAP	16	288	5
TAP	17	0	6
TAP	17	48	5
TAP	17	48	7
TAP	17	144	1
TAP	17	192	0
TAP	17	192	2
TAP	17	288	6
TAP	17	288	7
TAP	17	336	0
TAP	17	336	5
TAP	18	48	0
TAP	18	48	1
TAP	18	96	2
TAP	18	96	7
STR	18	192	3
SI_	18	192	3	96	48	0
STR	18	192	4
SI_	18	192	4	96	48	7
HLD	19	0	1	192
HLD	19	192	3	192
HLD	20	0	2	96
HLD	20	96	5	144
TAP	20	192	4
TAP	20	240	4
HLD	21	0	6	192
STR	21	192	7
SCR	21	192	7	96	48	2
STR	22	0	4
SCR	22	0	4	96	48	7
STR	22	192	1
SCR	22	192	1	96	48	4
TAP	22	288	7
HLD	22	336	7	240
HLD	23	192	5	192
HLD	24	0	6	96
HLD	24	96	0	144
TAP	24	192	7
TAP	24	240	7
HLD	25	0	2	96
HLD	25	96	3	96
TAP	25	192	4
TAP	25	288	0
TAP	25	288	7
TAP	25	336	0
STR	25	336	7
SCL	25	336	7	96	48	4
TAP	26	144	2
TAP	26	144	3
TAP	26	240	0
TAP	26	240	1
HLD	26	336	6	240
TAP	26	336	7
HLD	27	192	4	192
HLD	28	0	5	96
HLD	28	96	2	144
TAP	28	192	3
TAP	28	240	3
HLD	29	0	1	192
STR	29	192	0
SCL	29	192	0	96	48	5
STR	30	0	3
SCL	30	0	3	96	48	0
STR	30	192	6
SCL	30	192	6	96	48	3
TAP	30	288	0
HLD	30	336	0	240
HLD	31	192	2	192
HLD	32	0	1	96
HLD	32	96	7	144
TAP	32	192	0
TAP	32	240	0
TAP	33	0	4
HLD	33	0	5	192
TAP	33	96	3
TAP	33	192	2
TAP	33	288	3
TAP	33	288	4
STR	33	336	3
SCL	33	336	3	96	48	0
STR	33	336	4
SCR	33	336	4	96	48	7
TAP	34	192	3
TAP	34	192	4
TAP	34	288	3
TAP	34	312	4
TAP	34	336	3
TAP	34	360	4
HLD	35	0	3	336
HLD	35	336	2	384
HLD	36	336	1	384
HLD	37	336	7	384
TAP	38	336	0
TAP	38	360	7
HLD	39	0	0	336
HLD	39	336	6	384
HLD	40	336	5	384
HLD	41	336	3	432
BRK	43	0	4
TAP	43	192	1
HLD	44	0	2	240
TAP	44	192	3
TAP	44	240	3
TAP	45	0	4
TAP	45	192	6
HLD	46	0	5	240
TAP	46	192	4
TAP	46	240	4
TAP	47	0	3
TAP	47	96	3
TAP	47	192	4
TAP	47	288	4
TAP	48	0	1
TAP	48	48	1
TAP	48	96	6
TAP	48	144	6
TAP	48	192	0
TAP	48	240	0
TAP	48	288	7
TAP	48	336	7
TAP	49	0	0
TAP	49	24	7
TAP	49	48	0
TAP	49	72	7
TAP	49	96	0
TAP	49	120	7
TAP	49	144	0
TAP	49	168	7
TAP	49	192	0
TAP	49	216	7
TAP	49	240	0
TAP	49	264	7
TAP	49	288	0
TAP	49	312	7
TAP	49	336	0
TAP	49	360	7
STR	50	0	0
SCR	50	0	0	96	96	7
BRK	50	288	0
BRK	50	288	1
STR	51	0	4
SI_	51	0	4	96	48	1
STR	51	0	5
SI_	51	0	5	96	48	0
TAP	51	240	0
TAP	51	240	1
TAP	51	288	2
TAP	51	288	7
TAP	51	336	3
HLD	51	336	6	192
TAP	52	48	4
TAP	52	96	3
HLD	52	144	1	192
TAP	52	192	2
TAP	52	240	3
TAP	52	288	4
HLD	52	336	5	192
TAP	53	48	6
TAP	53	96	6
HLD	53	144	2	192
TAP	53	240	1
TAP	53	288	1
HLD	53	336	6	192
TAP	54	48	7
TAP	54	96	7
TAP	54	144	0
TAP	54	192	5
TAP	54	240	5
TAP	54	288	1
TAP	54	288	4
TAP	54	336	1
TAP	54	336	4
STR	55	0	2
SI_	55	0	2	96	48	7
STR	55	0	3
SI_	55	0	3	96	48	6
TAP	55	240	6
TAP	55	240	7
TAP	55	288	0
TAP	55	288	5
TAP	55	336	1
HLD	55	336	4	192
STR	56	144	2
SCL	56	144	2	96	96	7
STR	56	240	7
SCL	56	240	7	96	96	4
TAP	56	336	4
HLD	57	144	5	96
HLD	57	240	7	96
HLD	57	336	1	96
TAP	58	48	3
TAP	58	96	4
TAP	58	144	3
TAP	58	192	6
TAP	58	240	5
TAP	58	288	1
TAP	58	336	2
TAP	59	0	7
TAP	59	48	0
TAP	59	96	1
TAP	59	96	6
TAP	59	144	2
TAP	59	192	3
TAP	59	240	1
TAP	59	240	4
TAP	59	288	5
STR	59	336	6
SI_	59	336	6	96	48	3
STR	60	48	7
SI_	60	48	7	96	48	2
TAP	60	240	5
TAP	60	288	4
TAP	60	336	3
STR	61	0	2
SCR	61	0	2	96	72	5
TAP	61	240	6
TAP	61	240	7
TAP	61	288	0
TAP	61	288	5
HLD	61	336	1	192
TAP	61	336	4
TAP	62	48	3
TAP	62	96	4
HLD	62	144	6	144
TAP	62	192	4
TAP	62	240	3
HLD	62	288	1	96
TAP	62	336	3
STR	63	0	4
SI_	63	0	4	96	48	0
TAP	63	240	0
TAP	63	240	1
TAP	63	288	2
TAP	63	288	7
HLD	63	336	3	192
TAP	63	336	6
STR	64	144	5
SCR	64	144	5	96	96	0
STR	64	240	0
SCR	64	240	0	96	96	3
TAP	64	336	3
TAP	65	144	5
TAP	65	192	5
TAP	65	240	1
TAP	65	288	1
TAP	65	336	7
STR	66	0	7
SI_	66	0	7	96	48	3
STR	66	96	1
SI_	66	96	1	96	48	5
STR	66	192	6
SI_	66	192	6	96	48	3
TAP	66	288	2
HLD	67	0	0	336
BRK	67	0	1
HLD	67	336	2	384
HLD	68	336	1	384
HLD	69	336	3	384
TAP	70	336	4
TAP	70	360	3
HLD	71	0	4	336
HLD	71	336	6	384
HLD	72	336	5	384
HLD	73	336	7	432
TAP	75	0	0
TAP	75	336	1
TAP	76	336	2
TAP	76	360	3
TAP	77	0	2
TAP	77	336	3
TAP	78	336	5
TAP	78	360	4
TAP	79	0	5
TAP	79	336	6
TAP	80	336	0
TAP	81	336	7
HLD	82	288	3	72
HLD	82	288	4	72
BRK	83	0	3
BRK	83	0	4

T_REC_TAP	199
T_REC_BRK	6
T_REC_XTP	0
T_REC_HLD	58
T_REC_XHO	0
T_REC_STR	35
T_REC_BST	0
T_REC_XST	0
T_REC_TTP	0
T_REC_THO	0
T_REC_SLD	35
T_REC_ALL	333
T_NUM_TAP	234
T_NUM_BRK	6
T_NUM_HLD	58
T_NUM_SLD	35
T_NUM_ALL	333
T_JUDGE_TAP	240
T_JUDGE_HLD	264
T_JUDGE_SLD	35
T_JUDGE_ALL	539
TTM_EACHPAIRS	40
TTM_SCR_TAP	117000
TTM_SCR_BRK	15600
TTM_SCR_HLD	58000
TTM_SCR_SLD	52500
TTM_SCR_ALL	243100
TTM_SCR_S	235250
TTM_SCR_SS	242500
TTM_RAT_ACV	10024

