VERSION	0.00.00	1.03.00
FES_MODE	0
BPM_DEF	175.000	175.000	175.000	175.000
MET_DEF	4	4
RESOLUTION	384
CLK_DEF	384
COMPATIBLE_CODE	MA2

BPM	0	0	175.000

HLD	1	0	0	576
TAP	1	0	7
STR	2	192	7
SCL	2	192	7	96	576	1
TAP	5	0	0
HLD	5	0	7	576
STR	6	192	0
SCR	6	192	0	96	576	6
TAP	9	0	0
TAP	9	96	1
TAP	9	192	2
TAP	10	0	7
TAP	10	96	6
TAP	10	192	5
TAP	11	0	1
TAP	11	96	2
TAP	11	192	3
TAP	12	0	6
TAP	12	96	5
TAP	12	192	4
TAP	13	0	3
TAP	13	96	3
TAP	13	192	4
TAP	13	288	4
TAP	14	0	2
TAP	14	96	2
TAP	14	192	5
TAP	14	288	5
TAP	15	0	1
TAP	15	96	1
TAP	15	192	6
TAP	15	288	6
TAP	16	0	0
TAP	16	0	7
TAP	16	96	1
TAP	16	96	6
TAP	16	192	2
TAP	16	192	5
TAP	16	288	3
TAP	16	288	4
TAP	17	0	5
TAP	17	48	5
TAP	17	144	2
TAP	17	192	2
TAP	17	288	6
TAP	17	336	6
TAP	18	48	1
TAP	18	96	1
TAP	18	192	0
TAP	18	192	7
STR	18	240	0
SCR	18	240	0	96	240	3
STR	18	240	7
SCL	18	240	7	96	240	4
TAP	20	0	2
TAP	20	96	2
TAP	20	96	3
TAP	20	192	1
TAP	20	192	4
TAP	21	0	1
TAP	21	96	2
TAP	21	192	3
TAP	21	288	4
TAP	22	0	5
TAP	22	96	4
TAP	22	96	5
TAP	22	192	3
TAP	22	192	6
TAP	23	0	5
TAP	23	96	6
TAP	23	192	7
TAP	23	288	0
TAP	24	0	1
TAP	24	96	0
TAP	24	96	1
TAP	24	192	2
TAP	24	192	7
TAP	25	0	2
TAP	25	96	1
TAP	25	192	0
TAP	25	288	7
TAP	26	0	6
TAP	26	96	6
TAP	26	96	7
TAP	26	192	0
TAP	26	192	5
BRK	27	0	0
BRK	27	0	7
TAP	27	96	1
TAP	27	192	2
TAP	27	288	3
TAP	28	0	4
TAP	28	96	3
TAP	28	96	5
TAP	28	192	2
TAP	28	192	6
TAP	29	0	7
TAP	29	96	6
TAP	29	192	5
TAP	29	288	4
TAP	30	0	3
TAP	30	96	2
TAP	30	96	4
TAP	30	192	1
TAP	30	192	5
TAP	31	0	0
TAP	31	96	0
TAP	31	192	7
TAP	31	288	7
TAP	32	0	1
TAP	32	96	1
TAP	32	192	6
TAP	32	288	6
TAP	33	0	2
TAP	33	96	2
TAP	33	192	5
TAP	33	288	5
TAP	34	0	3
TAP	34	0	4
TAP	34	96	2
TAP	34	96	5
TAP	34	192	1
TAP	34	192	6
TAP	34	288	0
TAP	34	288	7
TAP	35	0	1
STR	35	0	6
SI_	35	0	6	96	384	1
STR	36	336	2
SI_	36	336	2	96	384	5
STR	39	0	4
SI_	39	0	4	96	384	7
STR	40	336	0
SI_	40	336	0	96	384	3
HLD	43	0	5	192
TAP	43	192	4
HLD	44	0	2	192
TAP	44	192	3
HLD	45	0	6	192
TAP	45	192	7
HLD	46	0	1	192
TAP	46	192	0
TAP	47	0	7
TAP	47	96	7
TAP	47	192	0
TAP	47	288	0
TAP	48	0	6
TAP	48	96	6
TAP	48	192	1
TAP	48	288	1
TAP	49	0	5
TAP	49	96	5
TAP	49	192	2
TAP	49	288	2
TAP	50	0	3
TAP	50	0	4
TAP	50	96	2
TAP	50	96	5
TAP	50	192	1
TAP	50	192	6
TAP	50	288	0
TAP	50	288	7
BRK	51	0	2
BRK	51	0	5
TAP	51	96	6
TAP	51	192	7
TAP	51	288	0
TAP	52	0	6
TAP	52	96	6
TAP	52	96	7
TAP	52	192	1
TAP	52	288	0
TAP	52	288	1
TAP	53	0	2
TAP	53	96	1
TAP	53	192	0
TAP	53	288	7
TAP	54	0	1
TAP	54	96	0
TAP	54	96	1
TAP	54	192	6
TAP	54	288	6
TAP	54	288	7
TAP	55	0	6
TAP	55	96	5
TAP	55	192	4
TAP	55	288	3
TAP	56	0	5
TAP	56	96	4
TAP	56	96	5
TAP	56	192	2
TAP	56	288	2
TAP	56	288	3
TAP	57	0	1
TAP	57	96	2
TAP	57	192	3
TAP	57	288	4
TAP	58	0	2
TAP	58	96	2
TAP	58	96	3
TAP	58	192	5
TAP	58	288	4
TAP	58	288	5
BRK	59	0	1
BRK	59	0	6
TAP	59	96	2
TAP	59	192	3
TAP	59	288	4
TAP	60	0	3
TAP	60	96	3
TAP	60	96	5
TAP	60	192	7
TAP	60	288	1
TAP	60	288	7
TAP	61	0	6
TAP	61	96	5
TAP	61	192	4
TAP	61	288	3
TAP	62	0	4
TAP	62	96	2
TAP	62	96	4
TAP	62	192	0
TAP	62	288	0
TAP	62	288	6
TAP	63	0	2
TAP	63	96	2
TAP	63	96	3
TAP	63	192	5
TAP	63	288	4
TAP	63	288	5
TAP	64	0	2
TAP	64	96	1
TAP	64	96	3
TAP	64	192	5
TAP	64	288	4
TAP	64	288	6
TAP	65	0	0
TAP	65	0	1
TAP	65	96	0
TAP	65	96	2
TAP	65	192	6
TAP	65	192	7
TAP	65	288	5
TAP	65	288	7
TAP	66	0	0
TAP	66	0	7
TAP	66	96	1
TAP	66	96	6
TAP	66	192	2
TAP	66	192	5
TAP	66	288	3
TAP	66	288	4
BRK	67	0	2
BST	67	0	5
SCL	67	0	5	96	384	2
STR	68	336	1
SCL	68	336	1	96	384	6
STR	71	0	4
SCR	71	0	4	96	336	7
STR	72	336	0
SCR	72	336	0	96	384	3
STR	75	0	3
SCL	75	0	3	96	384	0
STR	75	0	4
SCR	75	0	4	96	384	7
STR	76	336	0
SCR	76	336	0	96	384	3
STR	76	336	7
SCL	76	336	7	96	384	4
STR	79	0	5
SCL	79	0	5	96	384	2
STR	79	0	6
SCR	79	0	6	96	384	1
STR	80	336	1
SCL	80	336	1	96	384	6
STR	80	336	2
SCR	80	336	2	96	384	5
TAP	82	288	0
TAP	82	288	7
TAP	83	0	1
TAP	83	0	6

T_REC_TAP	228
T_REC_BRK	7
T_REC_XTP	0
T_REC_HLD	6
T_REC_XHO	0
T_REC_STR	19
T_REC_BST	1
T_REC_XST	0
T_REC_TTP	0
T_REC_THO	0
T_REC_SLD	20
T_REC_ALL	281
T_NUM_TAP	247
T_NUM_BRK	8
T_NUM_HLD	6
T_NUM_SLD	20
T_NUM_ALL	281
T_JUDGE_TAP	255
T_JUDGE_HLD	40
T_JUDGE_SLD	20
T_JUDGE_ALL	315
TTM_EACHPAIRS	63
TTM_SCR_TAP	123500
TTM_SCR_BRK	20800
TTM_SCR_HLD	6000
TTM_SCR_SLD	30000
TTM_SCR_ALL	180300
TTM_SCR_S	174150
TTM_SCR_SS	179500
TTM_RAT_ACV	10044

