VERSION	0.00.00	1.03.00
FES_MODE	0
BPM_DEF	175.000	175.000	175.000	175.000
MET_DEF	4	4
RESOLUTION	384
CLK_DEF	384
COMPATIBLE_CODE	MA2

BPM	0	0	175.000

HLD	1	0	0	720
HLD	5	0	7	720
TAP	9	0	0
TAP	9	192	0
TAP	10	0	0
TAP	10	192	0
TAP	11	0	1
TAP	11	192	1
TAP	12	0	1
TAP	12	192	1
TAP	13	0	2
TAP	13	96	2
TAP	13	192	2
TAP	14	0	3
TAP	14	96	3
TAP	14	192	3
TAP	15	0	4
TAP	15	96	4
TAP	15	192	4
TAP	16	0	3
TAP	16	0	4
TAP	16	96	3
TAP	16	96	4
BRK	16	192	3
BRK	16	192	4
HLD	17	0	2	288
HLD	17	0	5	288
TAP	18	192	3
TAP	18	192	4
TAP	19	0	2
TAP	19	192	2
TAP	19	192	3
TAP	20	0	2
TAP	20	192	2
TAP	20	192	3
TAP	21	0	5
TAP	21	192	4
TAP	21	192	5
TAP	22	0	5
TAP	22	192	4
TAP	22	192	5
TAP	23	0	3
TAP	23	192	2
TAP	23	192	3
TAP	24	0	3
TAP	24	192	2
TAP	24	192	3
TAP	25	0	4
TAP	25	192	4
TAP	25	192	5
TAP	26	0	4
TAP	26	192	4
TAP	26	192	5
TAP	27	0	6
TAP	27	192	6
TAP	27	192	7
TAP	28	0	6
TAP	28	192	6
TAP	28	192	7
TAP	29	0	1
TAP	29	192	0
TAP	29	192	1
TAP	30	0	1
TAP	30	192	0
TAP	30	192	1
TAP	31	0	7
TAP	31	192	6
TAP	31	192	7
TAP	32	0	7
TAP	32	192	6
TAP	32	192	7
TAP	33	0	0
TAP	33	192	0
TAP	33	192	1
TAP	34	0	0
TAP	34	192	0
TAP	34	192	1
STR	35	0	7
SI_	35	0	7	96	480	3
STR	39	0	0
SI_	39	0	0	96	480	4
TAP	43	0	7
TAP	43	192	7
TAP	44	0	7
TAP	44	192	7
TAP	45	0	6
TAP	45	192	6
TAP	46	0	6
TAP	46	192	6
TAP	47	0	5
TAP	47	96	5
TAP	47	192	5
TAP	48	0	4
TAP	48	96	4
TAP	48	192	4
TAP	49	0	3
TAP	49	96	3
TAP	49	192	3
TAP	50	0	3
TAP	50	0	4
TAP	50	96	3
TAP	50	96	4
BRK	50	192	3
BRK	50	192	4
TAP	51	0	3
TAP	51	96	3
TAP	51	192	3
TAP	51	192	4
TAP	52	0	2
TAP	52	96	2
TAP	52	192	2
TAP	52	192	3
TAP	53	0	1
TAP	53	96	1
TAP	53	192	0
TAP	53	192	1
TAP	54	0	0
TAP	54	96	0
TAP	54	192	0
TAP	54	192	7
TAP	55	0	7
TAP	55	96	7
TAP	55	192	0
TAP	55	192	7
TAP	56	0	6
TAP	56	96	6
TAP	56	192	6
TAP	56	192	7
TAP	57	0	5
TAP	57	96	5
TAP	57	192	4
TAP	57	192	5
TAP	58	0	4
TAP	58	96	4
TAP	58	192	3
TAP	58	192	4
TAP	59	0	2
TAP	59	96	3
TAP	59	192	2
TAP	60	0	5
TAP	60	96	4
TAP	60	192	5
TAP	61	0	6
TAP	61	96	7
TAP	61	192	6
TAP	62	0	1
TAP	62	96	0
TAP	62	192	1
TAP	63	0	2
TAP	63	96	3
TAP	63	192	2
TAP	63	192	3
TAP	64	0	5
TAP	64	96	4
TAP	64	192	4
TAP	64	192	5
TAP	65	0	3
TAP	65	0	4
TAP	65	96	3
TAP	65	96	4
TAP	65	192	2
TAP	65	192	5
HLD	66	0	3	192
HLD	66	0	4	192
STR	67	0	3
SI_	67	0	3	96	480	0
STR	71	0	4
SI_	71	0	4	96	480	7
STR	75	0	1
SI_	75	0	1	96	480	4
STR	79	0	6
SI_	79	0	6	96	480	3
TAP	83	0	3
TAP	83	0	4

T_REC_TAP	152
T_REC_BRK	4
T_REC_XTP	0
T_REC_HLD	6
T_REC_XHO	0
T_REC_STR	6
T_REC_BST	0
T_REC_XST	0
T_REC_TTP	0
T_REC_THO	0
T_REC_SLD	6
T_REC_ALL	174
T_NUM_TAP	158
T_NUM_BRK	4
T_NUM_HLD	6
T_NUM_SLD	6
T_NUM_ALL	174
T_JUDGE_TAP	162
T_JUDGE_HLD	50
T_JUDGE_SLD	6
T_JUDGE_ALL	218
TTM_EACHPAIRS	39
TTM_SCR_TAP	79000
TTM_SCR_BRK	10400
TTM_SCR_HLD	6000
TTM_SCR_SLD	9000
TTM_SCR_ALL	104400
TTM_SCR_S	100900
TTM_SCR_SS	104000
TTM_RAT_ACV	10038

