VERSION	0.00.00	1.03.00
FES_MODE	0
BPM_DEF	110.000	110.000	110.000	110.000
MET_DEF	4	4
RESOLUTION	384
CLK_DEF	384
COMPATIBLE_CODE	MA2

BPM	0	0	110.000
MET	0	0	4	4
MET	41	0	4	2
MET	41	192	4	4
MET	49	192	4	2
MET	50	0	4	4

TAP	2	0	0
STR	2	0	7
SI_	2	0	7	96	24	4
TAP	2	48	5
STR	2	96	0
SI_	2	96	0	96	24	3
TAP	2	96	7
TAP	2	144	2
TAP	2	192	0
TAP	2	192	7
TAP	2	216	7
TAP	2	264	3
TAP	2	264	4
TAP	2	336	3
TAP	2	336	5
STR	3	0	0
SI_	3	0	0	96	24	3
TAP	3	0	7
TAP	3	48	2
TAP	3	96	0
STR	3	96	7
SI_	3	96	7	96	24	4
TAP	3	144	5
TAP	3	192	0
TAP	3	192	7
TAP	3	216	0
TAP	3	264	3
TAP	3	336	2
TAP	3	336	4
STR	4	0	5
SI_	4	0	5	96	24	2
TAP	4	48	4
STR	4	96	1
SI_	4	96	1	96	24	6
TAP	4	96	5
TAP	4	144	0
TAP	4	192	1
STR	4	192	5
SI_	4	192	5	96	24	2
TAP	4	240	4
STR	4	288	1
SI_	4	288	1	96	24	6
TAP	4	288	5
TAP	4	336	0
TAP	5	0	1
STR	5	0	5
SI_	5	0	5	96	24	2
TAP	5	48	4
STR	5	96	1
SI_	5	96	1	96	24	6
TAP	5	96	5
TAP	5	144	0
TAP	5	192	1
TAP	5	192	5
TAP	5	216	5
TAP	5	264	3
TAP	5	264	6
TAP	5	336	3
TAP	5	336	4
TAP	6	0	7
TAP	6	24	5
TAP	6	48	3
STR	6	72	1
SI_	6	72	1	96	24	3
TAP	6	96	3
STR	6	120	5
SI_	6	120	5	96	24	7
TAP	6	144	4
STR	6	168	1
SV_	6	168	1	96	48	4
TAP	6	216	5
TAP	6	264	1
TAP	6	336	7
TAP	7	0	0
TAP	7	24	2
TAP	7	48	4
TAP	7	72	6
STR	7	96	4
SI_	7	96	4	96	24	0
STR	7	120	2
SI_	7	120	2	96	24	6
TAP	7	144	3
TAP	7	192	4
TAP	7	216	2
TAP	7	264	7
TAP	7	312	6
TAP	7	336	6
TAP	7	360	6
TAP	8	0	6
TAP	8	24	6
TAP	8	36	5
TAP	8	48	4
TAP	8	60	3
TAP	8	96	5
TAP	8	120	5
TAP	8	132	4
TAP	8	144	3
TAP	8	156	2
TAP	8	192	4
TAP	8	216	4
TAP	8	228	3
TAP	8	240	2
TAP	8	252	1
TAP	8	288	3
TAP	8	312	3
TAP	8	324	2
TAP	8	336	1
TAP	8	348	0
STR	9	0	0
SI_	9	0	0	96	24	2
TAP	9	0	7
TAP	9	48	3
TAP	9	96	0
STR	9	96	7
SCL	9	96	7	96	48	4
STR	9	144	4
SUL	9	144	4	96	96	1
TAP	9	192	7
STR	10	0	3
SCL	10	0	3	96	48	0
TAP	10	24	4
TAP	10	72	4
STR	10	192	4
SCR	10	192	4	96	48	7
TAP	10	216	3
TAP	10	264	3
TAP	11	0	3
TAP	11	24	2
TAP	11	72	4
TAP	11	96	5
TAP	11	144	3
TAP	11	168	1
TAP	11	216	4
TAP	11	240	6
TAP	11	288	3
TAP	11	288	4
TAP	11	336	0
TAP	11	336	7
TAP	12	0	7
TAP	12	6	6
HLD	12	12	5	60
TAP	12	72	0
TAP	12	78	1
HLD	12	84	2	60
TAP	12	144	6
TAP	12	150	5
HLD	12	156	4	60
TAP	12	216	1
TAP	12	222	2
HLD	12	228	3	60
BRK	12	288	7
TAP	13	0	1
TAP	13	0	4
TAP	13	24	1
TAP	13	24	4
TAP	13	48	2
TAP	13	48	5
TAP	13	72	2
TAP	13	72	5
STR	13	96	3
SCL	13	96	3	96	144	4
TAP	13	96	6
TAP	13	120	3
TAP	13	120	6
TAP	13	144	4
TAP	13	144	7
TAP	13	168	4
TAP	13	168	7
TAP	14	0	3
TAP	14	0	6
TAP	14	24	3
TAP	14	24	6
TAP	14	48	2
TAP	14	48	5
TAP	14	72	2
TAP	14	72	5
TAP	14	96	1
STR	14	96	4
SCR	14	96	4	96	144	3
TAP	14	120	1
TAP	14	120	4
TAP	14	144	0
TAP	14	144	3
TAP	14	168	0
TAP	14	168	3
TAP	14	312	7
TAP	14	336	7
TAP	14	360	7
STR	15	0	0
SI_	15	0	0	96	48	3
TAP	15	24	0
TAP	15	48	0
TAP	15	72	0
TAP	15	96	0
STR	15	96	7
SI_	15	96	7	96	48	4
TAP	15	120	7
TAP	15	144	7
TAP	15	168	7
STR	15	192	0
SI_	15	192	0	96	48	3
TAP	15	192	7
TAP	15	216	0
TAP	15	240	0
TAP	15	264	0
TAP	15	288	0
STR	15	288	4
SI_	15	288	4	96	48	7
TAP	15	312	4
TAP	15	336	4
TAP	15	360	4
STR	16	0	3
SI_	16	0	3	96	48	0
TAP	16	0	4
TAP	16	24	3
TAP	16	48	3
TAP	16	72	3
TAP	16	96	3
STR	16	96	4
SI_	16	96	4	96	48	7
TAP	16	120	4
TAP	16	144	4
TAP	16	168	4
TAP	16	192	0
TAP	16	192	4
TAP	16	216	0
TAP	16	240	0
TAP	16	264	0
STR	16	288	0
SI_	16	288	0	96	48	2
TAP	16	288	7
TAP	16	336	0
TAP	16	336	7
STR	17	0	0
SI_	17	0	0	96	48	4
TAP	17	24	3
TAP	17	48	3
TAP	17	72	3
STR	17	96	0
SI_	17	96	0	96	48	2
TAP	17	120	6
TAP	17	144	6
TAP	17	168	6
STR	17	192	0
SI_	17	192	0	96	48	4
TAP	17	216	3
TAP	17	240	3
TAP	17	264	3
STR	17	288	0
SI_	17	288	0	96	48	2
TAP	17	312	5
TAP	17	336	5
TAP	17	360	5
STR	18	0	0
SI_	18	0	0	96	48	4
TAP	18	24	3
TAP	18	48	3
TAP	18	72	3
STR	18	96	0
SI_	18	96	0	96	48	2
TAP	18	120	7
TAP	18	144	7
TAP	18	168	7
STR	18	192	0
SI_	18	192	0	96	48	4
TAP	18	216	4
TAP	18	240	5
TAP	18	264	6
TAP	18	288	0
STR	18	288	7
SI_	18	288	7	96	48	5
TAP	18	336	7
STR	19	0	7
SI_	19	0	7	96	48	3
TAP	19	24	4
TAP	19	48	4
TAP	19	72	4
STR	19	96	7
SI_	19	96	7	96	48	5
TAP	19	120	1
TAP	19	144	1
TAP	19	168	1
STR	19	192	7
SI_	19	192	7	96	48	3
TAP	19	216	4
TAP	19	240	4
TAP	19	264	4
STR	19	288	7
SI_	19	288	7	96	48	5
TAP	19	312	2
TAP	19	336	2
TAP	19	360	2
STR	20	0	7
SI_	20	0	7	96	48	3
TAP	20	24	4
TAP	20	48	4
TAP	20	72	4
STR	20	96	7
SI_	20	96	7	96	48	5
TAP	20	120	0
TAP	20	144	0
TAP	20	168	0
STR	20	192	7
SI_	20	192	7	96	48	3
TAP	20	216	4
TAP	20	240	4
TAP	20	264	4
STR	20	288	7
SXR	20	288	7	96	192	2
TAP	20	312	1
TAP	20	336	1
TAP	20	360	1
TAP	21	0	7
BST	21	288	1
SI_	21	288	1	96	48	3
BRK	21	288	6
STR	22	0	1
SI_	22	0	1	96	48	5
TAP	22	24	4
TAP	22	48	4
TAP	22	72	4
STR	22	96	1
SI_	22	96	1	96	48	3
TAP	22	120	6
TAP	22	144	7
TAP	22	168	6
STR	22	192	1
SI_	22	192	1	96	48	5
TAP	22	216	4
TAP	22	240	4
TAP	22	264	4
STR	22	288	1
SI_	22	288	1	96	48	3
TAP	22	312	7
TAP	22	336	0
TAP	22	360	7
STR	23	0	1
SI_	23	0	1	96	48	5
TAP	23	24	4
TAP	23	48	4
TAP	23	72	4
STR	23	96	1
SI_	23	96	1	96	48	3
TAP	23	120	6
TAP	23	144	7
TAP	23	168	6
STR	23	192	1
SI_	23	192	1	96	48	5
TAP	23	216	5
TAP	23	240	6
TAP	23	264	7
TAP	23	288	1
STR	23	288	6
SI_	23	288	6	96	48	4
TAP	23	336	6
STR	24	0	6
SI_	24	0	6	96	48	2
TAP	24	24	3
TAP	24	48	3
TAP	24	72	3
STR	24	96	6
SI_	24	96	6	96	48	4
TAP	24	120	1
TAP	24	144	0
TAP	24	168	1
STR	24	192	6
SI_	24	192	6	96	48	2
TAP	24	216	3
TAP	24	240	3
TAP	24	264	3
STR	24	288	6
SI_	24	288	6	96	48	4
TAP	24	312	0
TAP	24	336	7
TAP	24	360	0
HLD	25	0	1	168
TAP	25	0	6
TAP	25	168	3
TAP	25	288	2
TAP	25	304	3
TAP	25	320	4
TAP	25	336	2
TAP	25	352	3
TAP	25	368	4
TAP	26	0	5
TAP	26	32	3
TAP	26	32	4
TAP	26	64	2
TAP	26	64	3
STR	26	96	3
SI_	26	96	3	96	48	7
TAP	26	96	4
TAP	26	128	4
TAP	26	128	5
TAP	26	160	3
TAP	26	160	4
TAP	26	192	2
STR	26	192	3
SI_	26	192	3	96	48	1
SI_	26	192	3	96	48	5
HLD	27	0	7	48
HLD	27	48	4	48
TAP	27	96	7
TAP	27	120	7
TAP	27	144	4
STR	27	168	4
SI_	27	168	4	96	24	0
TAP	27	216	5
TAP	27	264	7
TAP	27	288	7
TAP	28	0	6
TAP	28	24	5
TAP	28	48	4
TAP	28	72	3
TAP	28	96	5
TAP	28	120	4
TAP	28	144	3
TAP	28	168	2
TAP	28	192	4
TAP	28	216	3
TAP	28	240	2
TAP	28	264	1
TAP	28	288	0
TAP	28	312	1
TAP	28	336	2
TAP	29	0	2
TAP	29	24	3
TAP	29	48	2
STR	29	72	1
SCL	29	72	1	96	24	7
TAP	29	96	2
TAP	29	120	3
TAP	29	144	2
TAP	29	168	1
TAP	29	288	4
TAP	30	0	5
TAP	30	24	4
TAP	30	48	5
STR	30	72	6
SCR	30	72	6	96	24	0
TAP	30	96	5
TAP	30	120	4
TAP	30	144	5
TAP	30	168	6
TAP	30	288	7
TAP	30	312	7
TAP	30	336	7
TAP	31	0	2
TAP	31	24	3
TAP	31	48	2
STR	31	72	1
SCL	31	72	1	96	24	7
TAP	31	96	2
TAP	31	120	3
TAP	31	144	2
TAP	31	168	1
STR	31	288	4
SF_	31	288	4	96	48	0
TAP	32	96	3
TAP	32	96	4
TAP	32	120	3
TAP	32	120	4
TAP	32	168	4
TAP	32	168	6
TAP	32	216	0
TAP	32	216	7
TAP	32	264	1
TAP	32	264	3
BRK	32	336	7
TAP	33	0	1
TAP	33	6	2
HLD	33	12	3	36
TAP	33	72	1
TAP	33	78	2
HLD	33	84	3	36
TAP	33	144	1
TAP	33	150	2
HLD	33	156	3	36
TAP	33	216	1
TAP	33	222	2
HLD	33	228	3	36
TAP	33	288	1
TAP	33	294	2
TAP	33	300	3
TAP	34	0	6
TAP	34	6	5
HLD	34	12	4	36
TAP	34	72	6
TAP	34	78	5
HLD	34	84	4	36
TAP	34	144	6
TAP	34	150	5
HLD	34	156	4	36
TAP	34	216	6
TAP	34	222	5
HLD	34	228	4	36
TAP	34	288	6
TAP	34	294	5
TAP	34	300	4
TAP	35	0	0
TAP	35	0	7
TAP	35	6	1
HLD	35	12	2	36
TAP	35	72	0
TAP	35	72	7
TAP	35	78	6
HLD	35	84	5	36
TAP	35	144	0
TAP	35	144	7
TAP	35	150	1
HLD	35	156	2	36
TAP	35	216	0
TAP	35	216	7
TAP	35	222	6
HLD	35	228	5	36
TAP	35	288	0
TAP	35	288	7
TAP	35	294	1
TAP	35	300	2
TAP	36	0	0
TAP	36	0	7
TAP	36	6	6
HLD	36	12	5	36
TAP	36	72	0
TAP	36	72	7
TAP	36	78	1
HLD	36	84	2	36
TAP	36	144	0
TAP	36	144	7
TAP	36	150	6
HLD	36	156	5	36
TAP	36	216	0
TAP	36	216	7
TAP	36	222	1
HLD	36	228	2	36
TAP	36	288	0
TAP	36	288	7
TAP	36	294	6
TAP	36	300	5
TAP	37	0	0
TAP	37	0	1
TAP	37	6	2
HLD	37	12	3	36
TAP	37	72	0
TAP	37	72	1
TAP	37	78	7
HLD	37	84	6	36
TAP	37	144	0
TAP	37	144	1
TAP	37	150	2
HLD	37	156	3	36
TAP	37	216	0
TAP	37	216	1
TAP	37	222	7
HLD	37	228	6	36
TAP	37	288	0
TAP	37	288	1
TAP	37	294	2
TAP	37	300	3
TAP	37	336	3
TAP	37	336	4
TAP	38	0	6
TAP	38	0	7
TAP	38	6	5
HLD	38	12	4	36
TAP	38	72	6
TAP	38	72	7
TAP	38	78	0
HLD	38	84	1	36
TAP	38	144	6
TAP	38	144	7
TAP	38	150	5
HLD	38	156	4	36
TAP	38	216	6
TAP	38	216	7
TAP	38	222	0
HLD	38	228	1	36
TAP	38	288	6
TAP	38	288	7
TAP	38	294	5
TAP	38	300	4
TAP	38	336	3
TAP	38	336	4
TAP	39	0	1
TAP	39	0	2
TAP	39	6	3
HLD	39	12	4	36
TAP	39	72	1
TAP	39	72	2
TAP	39	78	0
HLD	39	84	7	36
TAP	39	144	3
TAP	39	144	4
TAP	39	192	5
TAP	39	192	6
TAP	39	198	4
HLD	39	204	3	36
TAP	39	264	5
TAP	39	264	6
TAP	39	270	7
HLD	39	276	0	36
TAP	39	336	3
TAP	39	336	4
TAP	40	0	1
TAP	40	0	3
TAP	40	6	4
TAP	40	12	5
TAP	40	72	1
TAP	40	72	3
TAP	40	78	4
TAP	40	84	5
TAP	40	144	4
TAP	40	144	6
TAP	40	150	3
TAP	40	156	2
TAP	40	216	4
TAP	40	216	6
TAP	40	222	3
TAP	40	228	2
STR	40	288	2
SXL	40	288	2	96	144	5
TAP	40	288	3
TAP	40	294	4
TAP	40	300	5
TAP	40	336	0
TAP	40	336	1
BRK	41	144	7
TAP	41	192	0
TAP	41	216	1
TAP	41	240	2
STR	41	264	3
SI_	41	264	3	96	24	7
TAP	41	288	2
STR	41	312	1
SI_	41	312	1	96	24	5
TAP	41	336	2
STR	41	360	3
SCR	41	360	3	96	48	0
TAP	42	24	1
TAP	42	72	3
TAP	42	144	2
TAP	42	144	3
TAP	42	192	1
TAP	42	216	0
TAP	42	240	7
TAP	42	264	6
STR	42	288	7
SI_	42	288	7	96	24	3
STR	42	312	0
SI_	42	312	0	96	24	5
TAP	42	336	6
TAP	43	0	7
TAP	43	24	0
BRK	43	72	6
STR	43	96	6
SV_	43	96	6	96	24	3
STR	43	144	2
SI_	43	144	2	96	24	0
BST	43	192	6
SI_	43	192	6	96	24	4
BST	43	240	2
SV_	43	240	2	96	24	7
BST	43	288	6
SV_	43	288	6	96	24	3
BST	43	336	2
SI_	43	336	2	96	24	0
BST	44	0	6
SI_	44	0	6	96	24	4
BST	44	48	2
SV_	44	48	2	96	24	7
BRK	44	96	6
BRK	44	144	2
TAP	44	192	4
TAP	44	216	4
TAP	44	240	2
TAP	44	264	2
TAP	44	288	6
TAP	44	312	6
TAP	44	336	0
STR	44	360	0
SI_	44	360	0	96	24	3
SI_	44	360	0	96	24	5
TAP	45	0	4
TAP	45	24	4
TAP	45	72	0
TAP	45	144	0
TAP	45	144	7
TAP	45	192	7
TAP	45	216	6
TAP	45	240	5
STR	45	264	4
SI_	45	264	4	96	24	0
TAP	45	288	5
STR	45	312	6
SI_	45	312	6	96	24	2
TAP	45	336	5
STR	45	360	4
SCL	45	360	4	96	48	7
TAP	46	24	6
TAP	46	72	4
TAP	46	144	4
TAP	46	144	5
TAP	46	192	6
TAP	46	216	7
TAP	46	240	0
TAP	46	264	1
STR	46	288	0
SV_	46	288	0	96	24	3
STR	46	312	7
SV_	46	312	7	96	24	4
TAP	46	336	1
TAP	47	0	0
TAP	47	24	7
BRK	47	72	0
TAP	47	144	0
TAP	47	144	7
STR	47	192	2
SCL	47	192	2	96	24	0
TAP	47	216	2
TAP	47	240	3
TAP	47	264	4
STR	47	288	5
SCL	47	288	5	96	24	3
TAP	47	312	5
TAP	47	336	6
TAP	47	360	7
STR	48	0	0
SCL	48	0	0	96	24	6
TAP	48	24	0
TAP	48	48	1
TAP	48	72	2
TAP	48	96	3
TAP	48	120	3
TAP	48	144	4
TAP	48	168	4
TAP	48	192	3
TAP	48	216	3
TAP	48	240	5
TAP	48	264	5
TAP	48	288	1
TAP	48	312	1
TAP	48	336	7
STR	48	360	7
SI_	48	360	7	96	24	2
SI_	48	360	7	96	24	4
TAP	49	0	3
TAP	49	24	3
TAP	49	72	7
TAP	49	144	0
TAP	49	144	7
TAP	49	192	3
TAP	50	0	1
TAP	50	6	2
HLD	50	12	3	36
HLD	50	12	4	36
TAP	50	72	6
TAP	50	78	5
HLD	50	84	3	36
HLD	50	84	4	36
TAP	50	144	1
TAP	50	150	2
HLD	50	156	3	36
HLD	50	156	4	36
TAP	50	216	6
TAP	50	222	5
HLD	50	228	3	36
HLD	50	228	4	36
TAP	50	288	3
TAP	50	288	4
TAP	50	336	5
TAP	50	336	6
TAP	51	0	0
TAP	51	6	1
HLD	51	12	2	36
HLD	51	12	3	36
TAP	51	72	1
TAP	51	78	2
HLD	51	84	3	36
HLD	51	84	4	36
TAP	51	144	2
TAP	51	150	3
HLD	51	156	4	36
HLD	51	156	5	36
TAP	51	216	3
TAP	51	222	4
HLD	51	228	5	36
HLD	51	228	6	36
TAP	51	288	5
TAP	51	288	6
TAP	51	336	3
TAP	51	336	4
TAP	52	0	3
TAP	52	0	4
TAP	52	6	5
HLD	52	12	6	36
TAP	52	72	5
TAP	52	78	4
HLD	52	84	1	36
HLD	52	84	3	36
TAP	52	144	4
TAP	52	150	5
HLD	52	156	6	36
TAP	52	216	5
TAP	52	222	4
HLD	52	228	0	36
HLD	52	228	3	36
TAP	52	288	0
TAP	52	288	3
BRK	52	336	7
TAP	53	0	3
TAP	53	0	4
TAP	53	6	2
HLD	53	12	1	36
TAP	53	72	2
TAP	53	78	3
HLD	53	84	4	36
HLD	53	84	6	36
TAP	53	144	3
TAP	53	150	2
HLD	53	156	1	36
TAP	53	216	2
TAP	53	222	3
HLD	53	228	4	36
HLD	53	228	7	36
TAP	53	288	4
TAP	53	288	7
TAP	53	312	7
TAP	53	336	7
TAP	53	360	7
STR	54	0	0
SI_	54	0	0	96	24	2
STR	54	0	6
SI_	54	0	6	96	24	4
TAP	54	24	7
STR	54	48	7
SF_	54	48	7	96	24	3
TAP	54	96	0
TAP	54	96	6
TAP	54	144	7
STR	54	192	0
SF_	54	192	0	96	24	4
TAP	54	216	0
TAP	54	240	1
TAP	54	240	7
TAP	54	288	0
STR	55	0	1
SI_	55	0	1	96	24	3
STR	55	0	7
SI_	55	0	7	96	24	5
TAP	55	24	0
STR	55	48	0
SF_	55	48	0	96	24	4
TAP	55	96	1
TAP	55	96	7
TAP	55	144	0
STR	55	192	7
SF_	55	192	7	96	24	3
TAP	55	216	7
TAP	55	240	0
TAP	55	240	6
TAP	55	288	7
STR	56	0	0
SI_	56	0	0	96	24	5
STR	56	0	6
SI_	56	0	6	96	24	1
TAP	56	24	7
STR	56	48	7
SF_	56	48	7	96	24	3
TAP	56	96	0
TAP	56	96	6
TAP	56	144	7
STR	56	192	0
SF_	56	192	0	96	24	4
TAP	56	216	1
TAP	56	216	7
TAP	56	240	2
TAP	56	240	6
TAP	56	288	0
STR	57	0	1
SI_	57	0	1	96	24	6
STR	57	0	7
SI_	57	0	7	96	24	2
TAP	57	24	0
STR	57	48	0
SF_	57	48	0	96	24	4
TAP	57	96	1
TAP	57	96	7
TAP	57	144	0
STR	57	192	0
SI_	57	192	0	96	48	4
TAP	57	216	2
TAP	57	216	6
STR	57	240	4
SF_	57	240	4	96	48	0
TAP	57	288	0
HLD	58	192	5	0
HLD	58	240	3	0
HLD	58	288	4	0
HLD	58	312	3	0
HLD	58	360	2	0
HLD	59	24	5	0
HLD	59	72	4	0
STR	59	96	3
SCR	59	96	3	96	48	5
HLD	59	144	3	0
HLD	59	288	5	0
HLD	59	294	4	0
HLD	59	300	3	0
HLD	59	306	2	0

T_REC_TAP	608
T_REC_BRK	9
T_REC_XTP	0
T_REC_HLD	75
T_REC_XHO	0
T_REC_STR	100
T_REC_BST	7
T_REC_XST	0
T_REC_TTP	0
T_REC_THO	0
T_REC_SLD	110
T_REC_ALL	909
T_NUM_TAP	708
T_NUM_BRK	16
T_NUM_HLD	75
T_NUM_SLD	110
T_NUM_ALL	909
T_JUDGE_TAP	724
T_JUDGE_HLD	147
T_JUDGE_SLD	110
T_JUDGE_ALL	981
TTM_EACHPAIRS	132
TTM_SCR_TAP	354000
TTM_SCR_BRK	41600
TTM_SCR_HLD	75000
TTM_SCR_SLD	165000
TTM_SCR_ALL	635600
TTM_SCR_S	615000
TTM_SCR_SS	634000
TTM_RAT_ACV	10025

