VERSION	0.00.00	1.03.00
FES_MODE	0
BPM_DEF	110.000	110.000	110.000	110.000
MET_DEF	4	4
RESOLUTION	384
CLK_DEF	384
COMPATIBLE_CODE	MA2

BPM	0	0	110.000
MET	0	0	4	4
MET	41	0	4	2
MET	41	192	4	4
MET	49	192	4	2
MET	50	0	4	4

TAP	2	0	6
TAP	2	0	7
TAP	2	48	5
TAP	2	96	0
TAP	2	96	1
TAP	2	144	2
STR	2	192	6
SI_	2	192	6	96	48	2
TAP	2	192	7
TAP	2	216	6
TAP	2	216	7
TAP	2	264	5
HLD	2	264	6	72
TAP	3	0	0
TAP	3	0	1
TAP	3	48	2
TAP	3	96	6
TAP	3	96	7
TAP	3	144	5
TAP	3	192	0
STR	3	192	1
SI_	3	192	1	96	48	5
TAP	3	216	0
TAP	3	216	1
HLD	3	264	1	72
TAP	3	264	2
TAP	4	0	6
TAP	4	24	5
TAP	4	48	1
TAP	4	72	2
TAP	4	96	7
TAP	4	120	4
TAP	4	144	0
TAP	4	168	3
STR	4	192	1
SCR	4	192	1	96	48	5
TAP	4	192	5
TAP	4	288	1
TAP	4	288	5
TAP	4	300	6
TAP	4	312	7
TAP	4	324	0
TAP	4	336	1
TAP	5	0	6
TAP	5	24	5
TAP	5	48	7
TAP	5	72	4
TAP	5	96	0
TAP	5	120	3
TAP	5	144	1
TAP	5	168	2
STR	5	192	0
SI_	5	192	0	96	48	4
STR	5	192	3
SI_	5	192	3	96	48	7
TAP	5	216	4
TAP	5	216	7
TAP	5	264	0
TAP	5	264	3
TAP	6	0	6
TAP	6	24	6
TAP	6	48	7
STR	6	72	7
SI_	6	72	7	96	24	5
TAP	6	96	0
STR	6	120	0
SI_	6	120	0	96	24	4
STR	6	144	1
SI_	6	144	1	96	48	3
BRK	6	168	7
BRK	6	216	0
BRK	6	264	1
TAP	6	336	2
TAP	6	336	6
TAP	7	0	4
TAP	7	24	2
TAP	7	48	4
TAP	7	72	3
STR	7	96	4
SI_	7	96	4	96	24	6
STR	7	120	2
SI_	7	120	2	96	24	0
TAP	7	144	4
STR	7	168	3
SI_	7	168	3	96	24	7
BRK	7	192	4
BRK	7	216	2
BRK	7	264	3
TAP	7	312	0
TAP	7	336	0
TAP	7	360	0
TAP	8	0	1
STR	8	0	7
SI_	8	0	7	96	24	4
HLD	8	24	7	48
STR	8	96	0
SI_	8	96	0	96	24	3
HLD	8	120	0	48
STR	8	192	7
SCL	8	192	7	96	24	4
HLD	8	216	7	48
STR	8	288	0
SCR	8	288	0	96	24	3
HLD	8	312	0	48
TAP	9	0	6
TAP	9	24	6
TAP	9	48	2
TAP	9	72	2
TAP	9	96	4
TAP	9	120	4
TAP	9	144	0
TAP	9	168	0
STR	9	192	1
SI_	9	192	1	96	24	4
STR	9	192	7
SI_	9	192	7	96	24	4
STR	9	216	4
SI_	9	216	4	96	24	1
SI_	9	216	4	96	24	7
TAP	9	264	0
STR	10	0	0
SI_	10	0	0	96	24	3
STR	10	0	6
SI_	10	0	6	96	24	3
STR	10	24	3
SI_	10	24	3	96	24	0
SI_	10	24	3	96	24	6
TAP	10	72	7
STR	10	192	2
SCR	10	192	2	96	24	4
STR	10	192	6
SCL	10	192	6	96	24	4
STR	10	216	4
SCL	10	216	4	96	48	0
SCR	10	216	4	96	48	0
TAP	10	264	0
STR	11	0	1
SCR	11	0	1	96	24	3
STR	11	0	5
SCL	11	0	5	96	24	3
STR	11	24	3
SCL	11	24	3	96	48	7
SCR	11	24	3	96	48	7
TAP	11	72	7
TAP	11	192	2
TAP	11	216	2
TAP	11	240	6
TAP	11	264	6
TAP	11	288	0
TAP	11	288	7
STR	11	312	0
SCR	11	312	0	96	24	3
STR	11	312	7
SCL	11	312	7	96	24	4
STR	12	0	0
SV_	12	0	0	96	24	5
STR	12	0	7
SV_	12	0	7	96	24	2
STR	12	72	0
SCR	12	72	0	96	24	3
STR	12	72	7
SCL	12	72	7	96	24	4
STR	12	144	0
SV_	12	144	0	96	24	5
STR	12	144	7
SV_	12	144	7	96	24	2
STR	12	216	0
SCR	12	216	0	96	24	3
STR	12	216	7
SCL	12	216	7	96	24	4
BRK	12	288	0
BRK	12	288	7
TAP	13	0	1
TAP	13	24	0
TAP	13	48	2
TAP	13	72	3
TAP	13	96	0
TAP	13	120	7
TAP	13	144	3
TAP	13	168	4
TAP	13	192	7
TAP	13	216	6
TAP	13	240	4
HLD	13	264	5	120
TAP	13	336	6
TAP	14	0	7
TAP	14	24	6
TAP	14	48	4
TAP	14	72	5
TAP	14	96	0
TAP	14	120	7
TAP	14	144	3
TAP	14	168	4
TAP	14	192	1
TAP	14	216	0
TAP	14	240	2
HLD	14	264	3	120
TAP	14	312	4
TAP	14	336	4
TAP	14	360	4
STR	15	0	4
SI_	15	0	4	96	24	0
TAP	15	48	3
TAP	15	48	5
STR	15	96	0
SI_	15	96	0	96	24	4
TAP	15	96	4
TAP	15	144	1
TAP	15	144	7
TAP	15	192	0
STR	15	192	4
SI_	15	192	4	96	24	0
TAP	15	240	3
TAP	15	240	5
TAP	15	288	0
TAP	15	288	4
TAP	15	336	1
TAP	15	336	7
TAP	16	0	0
TAP	16	24	0
TAP	16	48	6
TAP	16	72	6
TAP	16	96	2
TAP	16	120	2
TAP	16	144	4
TAP	16	168	4
STR	16	192	0
SF_	16	192	0	96	48	4
TAP	16	204	7
TAP	16	216	6
TAP	16	228	5
TAP	16	240	4
TAP	16	252	3
TAP	16	264	2
TAP	16	276	1
BRK	16	288	0
TAP	17	0	6
TAP	17	0	7
STR	17	48	0
SI_	17	48	0	96	24	5
TAP	17	72	7
TAP	17	96	1
TAP	17	144	0
TAP	17	144	1
TAP	17	192	4
STR	17	240	7
SI_	17	240	7	96	24	2
TAP	17	264	0
TAP	17	288	6
TAP	17	336	6
TAP	17	336	7
TAP	18	0	3
STR	18	48	0
SI_	18	48	0	96	24	5
TAP	18	72	7
TAP	18	96	1
TAP	18	144	0
TAP	18	144	1
TAP	18	192	4
STR	18	240	7
SI_	18	240	7	96	24	2
TAP	18	264	0
TAP	18	288	6
TAP	18	336	6
TAP	18	336	7
TAP	19	0	3
STR	19	48	0
SI_	19	48	0	96	24	4
TAP	19	72	7
TAP	19	96	1
TAP	19	144	0
TAP	19	144	2
TAP	19	192	3
STR	19	240	7
SI_	19	240	7	96	24	3
TAP	19	264	0
TAP	19	288	6
TAP	19	336	5
TAP	19	336	7
TAP	20	0	1
TAP	20	24	0
TAP	20	48	2
TAP	20	72	3
TAP	20	96	0
TAP	20	120	7
TAP	20	144	3
TAP	20	168	4
TAP	20	192	7
TAP	20	216	6
TAP	20	240	4
TAP	20	264	5
STR	20	288	0
SSL	20	288	0	96	96	4
TAP	20	288	4
TAP	20	336	2
TAP	20	336	6
TAP	21	0	0
STR	21	0	4
SSL	21	0	4	96	96	0
TAP	21	192	4
TAP	21	204	5
TAP	21	216	6
TAP	21	228	7
TAP	21	240	0
TAP	21	252	1
TAP	21	264	2
TAP	21	276	3
BRK	21	288	0
TAP	21	288	4
TAP	22	0	6
TAP	22	0	7
STR	22	48	0
SI_	22	48	0	96	24	5
TAP	22	72	6
TAP	22	96	7
TAP	22	144	0
TAP	22	144	1
TAP	22	192	3
STR	22	240	7
SI_	22	240	7	96	24	2
TAP	22	264	1
TAP	22	288	0
TAP	22	336	6
TAP	22	336	7
TAP	23	0	4
STR	23	48	0
SI_	23	48	0	96	24	5
TAP	23	72	6
TAP	23	96	7
TAP	23	144	0
TAP	23	144	1
TAP	23	192	3
STR	23	240	7
SI_	23	240	7	96	24	2
TAP	23	264	1
TAP	23	288	0
TAP	23	336	6
TAP	23	336	7
TAP	24	0	4
STR	24	48	0
SI_	24	48	0	96	24	4
TAP	24	72	6
TAP	24	96	7
TAP	24	144	0
TAP	24	144	2
TAP	24	192	3
STR	24	240	7
SI_	24	240	7	96	24	3
TAP	24	264	1
TAP	24	288	0
TAP	24	336	5
TAP	24	336	7
TAP	25	0	4
TAP	25	48	1
TAP	25	72	0
TAP	25	96	2
TAP	25	120	0
TAP	25	144	3
STR	25	168	0
SCL	25	168	0	96	72	4
TAP	25	168	4
TAP	25	288	0
TAP	25	304	1
TAP	25	320	2
TAP	25	336	3
TAP	26	0	0
HLD	26	0	1	64
TAP	26	32	0
TAP	26	64	0
HLD	26	96	6	64
TAP	26	96	7
TAP	26	128	7
TAP	26	160	7
STR	26	192	1
SCR	26	192	1	96	72	7
STR	26	192	6
SCL	26	192	6	96	72	0
TAP	26	240	0
TAP	26	240	7
BRK	27	0	2
BRK	27	0	5
TAP	27	48	1
TAP	27	72	0
TAP	27	96	2
TAP	27	120	0
TAP	27	144	3
TAP	27	168	0
STR	27	168	4
SCR	27	168	4	96	72	0
TAP	27	288	4
TAP	28	0	2
TAP	28	24	0
TAP	28	48	1
TAP	28	72	7
TAP	28	96	0
TAP	28	120	6
TAP	28	144	7
TAP	28	168	5
TAP	28	192	1
TAP	28	216	3
TAP	28	240	2
TAP	28	264	4
TAP	28	288	3
TAP	28	312	5
TAP	28	336	4
STR	29	0	6
SI_	29	0	6	96	192	1
TAP	29	0	7
TAP	29	48	6
STR	29	48	7
SI_	29	48	7	96	24	4
TAP	29	96	0
TAP	29	144	7
TAP	29	288	2
HLD	30	0	7	48
TAP	30	24	1
HLD	30	48	0	48
TAP	30	72	6
HLD	30	96	7	48
TAP	30	120	2
HLD	30	144	0	48
TAP	30	168	5
HLD	30	192	7	48
TAP	30	216	3
TAP	30	240	0
TAP	30	264	4
TAP	30	288	0
TAP	30	288	7
TAP	30	312	1
TAP	30	312	6
TAP	30	336	2
TAP	30	336	5
TAP	31	0	0
STR	31	0	1
SI_	31	0	1	96	192	6
STR	31	48	0
SI_	31	48	0	96	24	3
TAP	31	48	1
TAP	31	96	7
TAP	31	144	0
TAP	31	288	5
TAP	32	0	0
TAP	32	24	0
TAP	32	48	7
STR	32	72	7
SI_	32	72	7	96	24	5
TAP	32	96	0
STR	32	120	0
SI_	32	120	0	96	24	4
STR	32	144	1
SI_	32	144	1	96	48	3
BRK	32	168	7
BRK	32	216	0
BRK	32	264	1
BRK	32	336	1
BRK	32	336	6
HLD	33	0	0	72
TAP	33	0	7
HLD	33	72	4	72
HLD	33	144	7	72
HLD	33	216	3	72
HLD	33	288	6	96
TAP	33	336	5
HLD	34	0	2	72
HLD	34	72	5	72
HLD	34	144	1	72
HLD	34	216	4	72
HLD	34	288	0	96
TAP	34	336	1
HLD	35	0	4	72
HLD	35	72	1	72
HLD	35	144	5	72
HLD	35	216	2	72
HLD	35	288	6	96
TAP	35	336	7
HLD	36	0	1	72
HLD	36	72	5	72
HLD	36	144	2	72
HLD	36	216	4	72
TAP	36	288	3
TAP	36	336	3
TAP	36	336	4
STR	37	0	1
SCL	37	0	1	96	24	6
TAP	37	0	5
STR	37	72	1
SCR	37	72	1	96	24	4
TAP	37	72	5
STR	37	144	1
SCL	37	144	1	96	24	6
TAP	37	144	5
STR	37	216	1
SCR	37	216	1	96	24	4
TAP	37	216	5
TAP	37	288	1
TAP	37	288	5
TAP	38	0	2
STR	38	0	6
SCR	38	0	6	96	24	1
TAP	38	72	2
STR	38	72	6
SCL	38	72	6	96	24	3
TAP	38	144	2
STR	38	144	6
SCR	38	144	6	96	24	1
TAP	38	216	2
STR	38	216	6
SCL	38	216	6	96	24	3
TAP	38	288	2
TAP	38	288	6
STR	39	0	1
SCR	39	0	1	96	48	4
TAP	39	0	6
TAP	39	24	7
TAP	39	48	0
HLD	39	72	1	72
TAP	39	192	1
STR	39	192	6
SCL	39	192	6	96	48	3
TAP	39	216	0
TAP	39	240	7
HLD	39	264	6	72
TAP	40	0	1
TAP	40	0	3
TAP	40	24	2
TAP	40	48	2
TAP	40	72	4
TAP	40	72	6
TAP	40	96	5
TAP	40	120	5
TAP	40	144	0
TAP	40	144	2
TAP	40	168	1
TAP	40	192	1
TAP	40	216	5
TAP	40	216	7
TAP	40	240	6
TAP	40	264	6
STR	40	288	0
SXR	40	288	0	96	96	4
STR	40	288	4
SXR	40	288	4	96	96	0
TAP	40	312	1
TAP	40	312	5
TAP	40	336	2
TAP	40	336	6
TAP	40	360	3
TAP	40	360	7
TAP	41	0	0
TAP	41	0	4
BRK	41	144	2
BRK	41	144	6
TAP	41	192	2
TAP	41	192	5
TAP	41	216	6
TAP	41	228	7
TAP	41	240	6
STR	41	264	1
SCR	41	264	1	96	24	3
TAP	41	276	0
TAP	41	288	1
STR	41	312	5
SCR	41	312	5	96	24	7
TAP	41	336	5
BST	41	360	1
SI_	41	360	1	96	24	5
BRK	42	24	5
BRK	42	72	1
TAP	42	144	1
TAP	42	144	6
TAP	42	192	3
TAP	42	192	4
TAP	42	216	2
TAP	42	228	3
TAP	42	240	2
TAP	42	264	5
TAP	42	276	4
STR	42	288	5
SCR	42	288	5	96	24	7
STR	42	312	1
SCR	42	312	1	96	24	3
TAP	42	336	1
BST	43	0	5
SI_	43	0	5	96	24	1
BRK	43	24	1
BRK	43	72	5
TAP	43	144	7
TAP	43	192	0
BST	43	192	1
SCR	43	192	1	96	24	4
TAP	43	240	0
BST	43	240	7
SCL	43	240	7	96	24	4
TAP	43	288	0
BST	43	288	1
SI_	43	288	1	96	24	5
TAP	43	336	0
BST	43	336	7
SI_	43	336	7	96	24	3
TAP	44	0	0
BST	44	0	1
SCR	44	0	1	96	24	4
TAP	44	48	0
BST	44	48	7
SCL	44	48	7	96	24	4
TAP	44	96	0
BRK	44	96	1
TAP	44	144	0
BRK	44	144	7
HLD	44	192	2	48
TAP	44	216	3
HLD	44	240	5	48
TAP	44	264	4
HLD	44	288	1	48
TAP	44	312	2
HLD	44	336	6	48
TAP	44	360	5
TAP	45	0	1
TAP	45	24	0
STR	45	48	6
SI_	45	48	6	96	24	3
TAP	45	72	7
TAP	45	96	0
BRK	45	144	6
BRK	45	144	7
TAP	45	192	2
TAP	45	192	5
TAP	45	216	1
TAP	45	228	0
TAP	45	240	1
STR	45	264	6
SCL	45	264	6	96	24	4
TAP	45	276	7
TAP	45	288	6
STR	45	312	2
SCL	45	312	2	96	24	0
TAP	45	336	2
BST	45	360	6
SI_	45	360	6	96	24	2
BRK	46	24	2
BRK	46	72	6
TAP	46	144	1
TAP	46	144	6
TAP	46	192	3
TAP	46	192	4
TAP	46	216	5
TAP	46	228	4
TAP	46	240	5
TAP	46	264	2
TAP	46	276	3
STR	46	288	2
SCL	46	288	2	96	24	0
STR	46	312	6
SCL	46	312	6	96	24	4
TAP	46	336	6
BST	47	0	2
SI_	47	0	2	96	24	6
BRK	47	24	6
BRK	47	72	2
TAP	47	144	0
BST	47	192	6
SCL	47	192	6	96	24	3
TAP	47	192	7
BST	47	240	0
SCR	47	240	0	96	24	3
TAP	47	240	7
BST	47	288	6
SI_	47	288	6	96	24	2
TAP	47	288	7
BST	47	336	0
SI_	47	336	0	96	24	4
TAP	47	336	7
BST	48	0	6
SCL	48	0	6	96	24	3
TAP	48	0	7
BST	48	48	0
SCR	48	48	0	96	24	3
TAP	48	48	7
BRK	48	96	6
TAP	48	96	7
BRK	48	144	0
TAP	48	144	7
HLD	48	192	6	24
HLD	48	216	2	24
HLD	48	240	5	24
HLD	48	264	1	24
HLD	48	288	4	24
HLD	48	312	0	24
HLD	48	336	3	24
HLD	48	360	7	24
HLD	49	0	2	24
HLD	49	24	6	24
HLD	49	48	1	24
TAP	49	72	5
STR	49	96	0
SCL	49	96	0	96	48	4
TAP	49	144	0
STR	49	144	4
SCL	49	144	4	96	96	4
STR	50	0	0
SCR	50	0	0	96	24	3
TAP	50	0	1
TAP	50	48	7
STR	50	72	0
SI_	50	72	0	96	24	5
TAP	50	72	7
TAP	50	120	1
STR	50	144	0
SCR	50	144	0	96	24	3
TAP	50	144	1
TAP	50	192	7
STR	50	216	0
SI_	50	216	0	96	24	5
TAP	50	216	7
TAP	50	264	1
TAP	50	288	0
TAP	50	288	1
BRK	50	336	4
TAP	51	0	6
STR	51	0	7
SCL	51	0	7	96	24	4
TAP	51	48	0
TAP	51	72	0
STR	51	72	7
SI_	51	72	7	96	24	2
TAP	51	120	6
TAP	51	144	6
STR	51	144	7
SCL	51	144	7	96	24	4
TAP	51	192	0
TAP	51	216	0
STR	51	216	7
SI_	51	216	7	96	24	2
TAP	51	264	6
TAP	51	288	6
TAP	51	288	7
BRK	51	336	3
STR	52	0	0
SCR	52	0	0	96	24	3
TAP	52	0	1
TAP	52	48	7
STR	52	72	0
SCL	52	72	0	96	24	5
TAP	52	72	7
TAP	52	120	1
STR	52	144	0
SCR	52	144	0	96	24	3
TAP	52	144	1
TAP	52	192	7
STR	52	216	0
SCL	52	216	0	96	24	5
TAP	52	216	7
TAP	52	264	1
TAP	52	288	0
TAP	52	288	1
BRK	52	336	4
TAP	53	0	6
STR	53	0	7
SCL	53	0	7	96	24	4
TAP	53	48	0
TAP	53	72	0
STR	53	72	7
SCR	53	72	7	96	24	2
TAP	53	120	6
TAP	53	144	6
STR	53	144	7
SCL	53	144	7	96	24	4
TAP	53	192	0
TAP	53	216	0
STR	53	216	7
SCR	53	216	7	96	24	2
TAP	53	264	6
TAP	53	288	6
TAP	53	288	7
BRK	53	336	3
TAP	54	0	1
STR	54	0	6
SI_	54	0	6	96	24	3
TAP	54	24	7
TAP	54	48	7
STR	54	72	1
SI_	54	72	1	96	24	4
TAP	54	72	6
TAP	54	96	0
TAP	54	120	0
TAP	54	144	1
STR	54	144	6
SI_	54	144	6	96	24	3
TAP	54	168	7
TAP	54	192	7
STR	54	216	1
SI_	54	216	1	96	24	4
TAP	54	216	6
TAP	54	240	0
TAP	54	264	0
TAP	54	288	1
TAP	54	288	6
BRK	54	336	5
STR	55	0	1
SI_	55	0	1	96	24	4
TAP	55	0	6
TAP	55	24	0
TAP	55	48	0
TAP	55	72	1
STR	55	72	6
SI_	55	72	6	96	24	3
TAP	55	96	7
TAP	55	120	7
STR	55	144	1
SI_	55	144	1	96	24	4
TAP	55	144	6
TAP	55	168	0
TAP	55	192	0
TAP	55	216	1
STR	55	216	6
SI_	55	216	6	96	24	3
TAP	55	240	7
TAP	55	264	7
TAP	55	288	1
TAP	55	288	6
BRK	55	336	2
TAP	56	0	0
STR	56	0	6
SI_	56	0	6	96	24	2
TAP	56	24	7
TAP	56	48	7
STR	56	72	0
SI_	56	72	0	96	24	4
TAP	56	72	6
TAP	56	96	7
TAP	56	120	7
TAP	56	144	0
STR	56	144	6
SI_	56	144	6	96	24	2
TAP	56	168	7
TAP	56	192	7
STR	56	216	0
SI_	56	216	0	96	24	4
TAP	56	216	6
TAP	56	240	7
TAP	56	264	7
TAP	56	288	0
TAP	56	288	6
BRK	56	336	3
TAP	57	0	1
TAP	57	0	5
TAP	57	24	1
TAP	57	24	5
TAP	57	48	2
TAP	57	48	6
TAP	57	72	2
TAP	57	72	6
TAP	57	96	3
TAP	57	96	7
TAP	57	120	3
TAP	57	120	7
TAP	57	144	0
TAP	57	144	4
TAP	57	168	0
TAP	57	168	4
TAP	57	192	3
TAP	57	192	7
TAP	57	200	6
TAP	57	208	5
TAP	57	216	4
TAP	57	224	3
TAP	57	232	2
TAP	57	240	1
TAP	57	248	0
TAP	57	256	7
TAP	57	264	6
TAP	57	272	5
TAP	57	280	4
TAP	57	288	3
TAP	57	288	7
TAP	57	296	0
TAP	57	304	1
TAP	57	312	2
TAP	57	320	3
TAP	57	328	4
TAP	57	336	5
TAP	57	344	6
TAP	57	352	7
TAP	57	360	0
TAP	57	368	1
TAP	57	376	2
BRK	58	0	3
BST	58	0	7
SI_	58	0	7	96	336	3
TAP	58	192	0
TAP	58	240	6
TAP	58	288	1
TAP	58	336	5
TAP	59	0	2
TAP	59	48	4
STR	59	96	2
SI_	59	96	2	96	48	6
SCL	59	96	2	96	528	3
TAP	59	144	2
HLD	59	288	2	432

T_REC_TAP	532
T_REC_BRK	41
T_REC_XTP	0
T_REC_HLD	52
T_REC_XHO	0
T_REC_STR	118
T_REC_BST	17
T_REC_XST	0
T_REC_TTP	0
T_REC_THO	0
T_REC_SLD	140
T_REC_ALL	900
T_NUM_TAP	650
T_NUM_BRK	58
T_NUM_HLD	52
T_NUM_SLD	140
T_NUM_ALL	900
T_JUDGE_TAP	708
T_JUDGE_HLD	143
T_JUDGE_SLD	140
T_JUDGE_ALL	991
TTM_EACHPAIRS	162
TTM_SCR_TAP	325000
TTM_SCR_BRK	150800
TTM_SCR_HLD	52000
TTM_SCR_SLD	210000
TTM_SCR_ALL	737800
TTM_SCR_S	710050
TTM_SCR_SS	732000
TTM_RAT_ACV	10079

