VERSION	0.00.00	1.03.00
FES_MODE	0
BPM_DEF	110.000	110.000	110.000	110.000
MET_DEF	4	4
RESOLUTION	384
CLK_DEF	384
COMPATIBLE_CODE	MA2

BPM	0	0	110.000
MET	0	0	4	4
MET	41	0	4	2
MET	41	192	4	4
MET	49	192	4	2
MET	50	0	4	4

TAP	2	0	1
TAP	2	48	3
TAP	2	96	6
TAP	2	144	4
STR	2	192	3
SLR	2	192	3	96	72	0
STR	2	192	5
SLL	2	192	5	96	72	0
TAP	3	0	6
TAP	3	48	4
TAP	3	96	1
TAP	3	144	3
STR	3	192	2
SLR	3	192	2	96	72	7
STR	3	192	4
SLL	3	192	4	96	72	7
STR	4	0	1
SCL	4	0	1	96	336	6
TAP	4	48	1
TAP	4	96	2
TAP	4	144	2
TAP	4	192	3
TAP	4	240	3
TAP	4	288	4
TAP	4	336	4
TAP	5	0	5
TAP	5	48	5
TAP	5	96	6
TAP	5	144	6
TAP	5	192	0
TAP	5	216	0
TAP	5	264	2
STR	5	264	5
SCL	5	264	5	96	24	2
TAP	5	336	0
HLD	6	0	0	168
TAP	6	168	1
TAP	6	216	5
TAP	6	216	6
HLD	6	264	2	48
HLD	6	264	3	48
TAP	6	336	2
TAP	6	336	3
HLD	7	0	7	144
TAP	7	144	6
TAP	7	192	1
TAP	7	192	2
TAP	7	216	1
TAP	7	216	2
TAP	7	264	4
TAP	7	264	5
TAP	7	312	0
TAP	7	336	0
TAP	7	360	0
HLD	8	0	1	48
HLD	8	96	2	48
HLD	8	192	3	48
HLD	8	288	4	48
TAP	9	0	5
TAP	9	24	5
TAP	9	72	6
TAP	9	120	7
TAP	9	168	0
HLD	9	216	1	72
HLD	9	288	3	192
HLD	10	0	5	288
HLD	10	192	2	192
HLD	11	0	4	96
HLD	11	96	3	96
HLD	11	192	2	96
HLD	11	288	5	96
TAP	12	0	4
TAP	12	24	3
TAP	12	24	6
TAP	12	72	2
TAP	12	72	3
TAP	12	96	1
TAP	12	96	4
TAP	12	144	6
TAP	12	144	7
TAP	12	168	0
TAP	12	168	5
TAP	12	216	0
TAP	12	216	1
TAP	12	240	2
TAP	12	240	7
BRK	12	288	1
BRK	12	288	6
TAP	13	0	2
TAP	13	48	2
TAP	13	72	3
TAP	13	120	3
TAP	13	144	2
TAP	13	192	2
TAP	13	312	0
TAP	13	336	0
TAP	14	0	5
TAP	14	48	5
TAP	14	72	4
TAP	14	120	4
TAP	14	144	5
TAP	14	192	5
TAP	14	312	7
TAP	14	336	7
TAP	14	360	7
HLD	15	0	6	96
TAP	15	48	7
HLD	15	96	1	96
TAP	15	144	0
HLD	15	192	5	96
TAP	15	240	7
HLD	15	288	2	96
TAP	15	336	0
HLD	16	0	4	96
TAP	16	48	7
HLD	16	96	3	96
TAP	16	144	0
HLD	16	192	6	120
HLD	16	264	1	48
STR	16	336	1
SI_	16	336	1	96	24	4
BRK	16	336	6
TAP	17	0	7
STR	17	48	6
SCL	17	48	6	96	24	3
TAP	17	96	2
STR	17	144	0
SI_	17	144	0	96	24	4
TAP	17	192	5
STR	17	240	7
SUL	17	240	7	96	24	3
TAP	17	288	1
STR	17	336	2
SI_	17	336	2	96	24	7
TAP	18	0	4
STR	18	48	5
SCR	18	48	5	96	24	0
TAP	18	96	2
STR	18	144	1
SV_	18	144	1	96	24	4
TAP	18	192	7
STR	18	240	6
SV_	18	240	6	96	24	3
TAP	18	288	2
STR	18	336	1
SCR	18	336	1	96	24	4
TAP	19	0	5
STR	19	48	7
SI_	19	48	7	96	24	3
TAP	19	96	2
STR	19	144	0
SUR	19	144	0	96	24	4
TAP	19	192	6
STR	19	240	5
SI_	19	240	5	96	24	0
TAP	19	288	3
STR	19	336	2
SCL	19	336	2	96	24	7
TAP	20	0	6
STR	20	48	4
SI_	20	48	4	96	24	0
TAP	20	96	3
TAP	20	144	1
TAP	20	192	7
TAP	20	240	5
STR	20	288	3
SCL	20	288	3	96	240	4
STR	20	288	4
SUL	20	288	4	96	240	3
TAP	20	336	3
TAP	20	336	4
BRK	21	288	0
BRK	21	288	7
TAP	21	312	0
TAP	21	312	7
TAP	21	336	0
TAP	21	336	7
TAP	22	0	3
TAP	22	0	6
TAP	22	48	2
TAP	22	48	5
TAP	22	96	1
STR	22	96	4
SCR	22	96	4	96	24	7
STR	22	144	0
SCR	22	144	0	96	24	3
TAP	22	336	0
TAP	22	336	7
HLD	23	0	4	72
TAP	23	72	3
TAP	23	96	4
TAP	23	144	2
TAP	23	144	5
HLD	23	192	1	96
TAP	23	240	2
HLD	23	288	6	96
TAP	23	336	5
STR	24	0	1
SCR	24	0	1	96	96	4
STR	24	96	4
SCR	24	96	4	96	96	7
STR	24	192	7
SCR	24	192	7	96	96	2
STR	24	288	2
SCR	24	288	2	96	96	5
HLD	25	0	7	168
HLD	25	168	5	120
STR	25	288	3
SUR	25	288	3	96	96	4
TAP	26	144	4
TAP	26	168	3
STR	26	192	4
SUL	26	192	4	96	96	3
STR	26	288	3
SCL	26	288	3	96	96	4
TAP	27	96	0
TAP	27	168	2
TAP	27	168	3
TAP	27	216	4
TAP	27	216	5
TAP	27	288	0
TAP	27	288	7
TAP	28	0	6
TAP	28	24	5
TAP	28	48	3
TAP	28	72	4
TAP	28	96	1
TAP	28	120	2
TAP	28	144	4
TAP	28	168	3
TAP	28	192	7
TAP	28	216	6
TAP	28	240	3
TAP	28	264	4
TAP	28	288	0
TAP	28	312	1
TAP	28	336	4
TAP	28	360	3
STR	29	0	6
SI_	29	0	6	96	48	2
TAP	29	192	0
TAP	29	288	1
STR	30	0	2
SI_	30	0	2	96	48	5
TAP	30	192	6
TAP	30	288	5
STR	31	0	7
SI_	31	0	7	96	48	3
TAP	31	192	1
STR	31	288	0
SCR	31	288	0	96	96	7
TAP	32	168	1
TAP	32	168	6
STR	32	216	3
SCL	32	216	3	96	48	7
TAP	32	216	4
TAP	32	264	0
STR	32	264	7
SCL	32	264	7	96	24	4
HLD	33	0	3	72
HLD	33	72	2	72
HLD	33	144	5	72
HLD	33	216	4	72
HLD	33	288	6	96
TAP	33	336	7
HLD	34	0	4	72
HLD	34	72	5	72
HLD	34	144	2	72
HLD	34	216	3	72
HLD	34	288	1	96
TAP	34	336	0
HLD	35	0	3	72
HLD	35	72	2	72
HLD	35	144	4	72
HLD	35	216	5	72
HLD	35	288	6	96
TAP	35	336	7
HLD	36	0	4	72
HLD	36	72	5	72
HLD	36	144	3	72
HLD	36	216	2	72
HLD	36	288	1	144
TAP	36	336	0
HLD	37	0	2	48
HLD	37	72	0	48
HLD	37	72	3	48
HLD	37	144	4	48
HLD	37	144	7	48
HLD	37	216	5	48
HLD	37	216	6	48
TAP	37	288	5
TAP	37	288	6
TAP	37	336	3
TAP	37	336	4
HLD	38	0	5	48
HLD	38	0	6	48
HLD	38	72	4	48
HLD	38	72	7	48
HLD	38	144	0	48
HLD	38	144	3	48
HLD	38	216	1	48
HLD	38	216	2	48
TAP	38	288	1
TAP	38	288	2
TAP	38	336	3
TAP	38	336	4
HLD	39	0	1	48
HLD	39	0	2	48
HLD	39	72	0	48
HLD	39	72	1	48
TAP	39	144	0
TAP	39	144	7
HLD	39	192	5	48
HLD	39	192	6	48
HLD	39	264	6	48
HLD	39	264	7	48
TAP	39	336	0
TAP	39	336	7
TAP	40	0	1
TAP	40	24	3
TAP	40	48	2
TAP	40	72	6
TAP	40	96	4
TAP	40	120	5
TAP	40	144	0
TAP	40	168	3
TAP	40	192	2
TAP	40	216	7
TAP	40	240	4
TAP	40	264	5
TAP	40	288	1
TAP	40	312	4
TAP	40	336	3
TAP	40	360	6
STR	41	0	4
SI_	41	0	4	96	24	0
BRK	41	144	7
STR	41	192	2
SI_	41	192	2	96	24	6
TAP	41	240	6
TAP	41	288	4
TAP	41	312	4
TAP	41	360	5
TAP	41	360	7
TAP	42	24	3
TAP	42	24	4
HLD	42	72	0	72
TAP	42	72	2
TAP	42	144	7
TAP	42	192	0
TAP	42	192	7
TAP	42	240	1
TAP	42	240	3
TAP	42	288	0
TAP	42	288	7
TAP	42	336	4
TAP	42	336	6
STR	43	0	0
SCL	43	0	0	96	24	5
STR	43	0	7
SCR	43	0	7	96	24	2
TAP	43	24	0
TAP	43	24	7
STR	43	192	2
SI_	43	192	2	96	24	7
STR	43	240	6
SI_	43	240	6	96	24	3
TAP	43	288	2
TAP	43	336	6
STR	44	0	0
SI_	44	0	0	96	24	5
STR	44	48	4
SI_	44	48	4	96	24	1
TAP	44	96	0
TAP	44	144	4
HLD	44	192	2	96
TAP	44	240	0
HLD	44	288	5	96
TAP	44	336	7
STR	45	0	3
SCL	45	0	3	96	24	1
SCR	45	0	3	96	24	6
TAP	45	24	3
STR	45	192	5
SI_	45	192	5	96	24	1
TAP	45	240	1
TAP	45	288	3
TAP	45	312	3
TAP	45	360	0
TAP	45	360	2
TAP	46	24	3
TAP	46	24	4
TAP	46	72	5
HLD	46	72	7	72
TAP	46	144	0
TAP	46	192	0
TAP	46	192	7
TAP	46	240	4
TAP	46	240	6
TAP	46	288	0
TAP	46	288	7
TAP	46	336	1
TAP	46	336	3
STR	47	0	0
SCL	47	0	0	96	24	5
STR	47	0	7
SCR	47	0	7	96	24	2
TAP	47	24	0
TAP	47	24	7
STR	47	192	0
SI_	47	192	0	96	240	4
TAP	47	288	7
TAP	47	336	1
TAP	48	0	6
TAP	48	48	2
TAP	48	96	5
TAP	48	144	3
TAP	48	192	5
TAP	48	216	5
TAP	48	240	7
TAP	48	288	2
TAP	48	312	2
TAP	48	336	0
STR	49	0	5
SCL	49	0	5	96	48	2
TAP	49	24	5
STR	49	48	2
SCL	49	48	2	96	48	7
BRK	49	192	3
STR	50	0	6
SCL	50	0	6	96	48	3
TAP	50	72	7
STR	50	144	0
SCL	50	144	0	96	48	5
TAP	50	216	1
TAP	50	288	2
TAP	50	336	3
TAP	50	336	4
STR	51	0	5
SCR	51	0	5	96	48	0
TAP	51	72	4
STR	51	144	3
SCR	51	144	3	96	48	6
TAP	51	216	2
TAP	51	288	1
TAP	51	336	0
TAP	51	336	7
STR	52	0	1
SCR	52	0	1	96	48	4
TAP	52	72	0
STR	52	144	7
SCR	52	144	7	96	48	2
TAP	52	216	6
TAP	52	288	5
TAP	52	336	3
TAP	52	336	4
STR	53	0	2
SCL	53	0	2	96	48	7
TAP	53	72	3
STR	53	144	4
SCL	53	144	4	96	48	1
TAP	53	216	5
TAP	53	288	6
TAP	53	336	0
TAP	53	336	7
TAP	54	0	3
TAP	54	24	4
TAP	54	72	4
TAP	54	96	6
TAP	54	144	6
TAP	54	168	4
TAP	54	216	4
TAP	54	240	3
TAP	54	288	3
TAP	54	336	0
TAP	54	336	1
TAP	55	0	4
TAP	55	24	3
TAP	55	72	3
TAP	55	96	1
TAP	55	144	1
TAP	55	168	3
TAP	55	216	3
TAP	55	240	4
TAP	55	288	4
TAP	55	336	6
TAP	55	336	7
STR	56	0	0
SI_	56	0	0	96	24	3
TAP	56	24	0
STR	56	48	0
SI_	56	48	0	96	24	5
STR	56	192	4
SI_	56	192	4	96	24	6
TAP	56	216	4
STR	56	240	4
SI_	56	240	4	96	24	0
STR	57	0	7
SI_	57	0	7	96	24	4
TAP	57	24	7
STR	57	48	7
SI_	57	48	7	96	24	2
STR	57	192	3
SI_	57	192	3	96	24	1
TAP	57	216	3
STR	57	240	3
SI_	57	240	3	96	24	7
BRK	58	0	0
STR	58	192	2
SLL	58	192	2	96	336	5
STR	58	192	6
SLL	58	192	6	96	336	1
BRK	59	288	3
BRK	59	288	7

T_REC_TAP	287
T_REC_BRK	10
T_REC_XTP	0
T_REC_HLD	76
T_REC_XHO	0
T_REC_STR	70
T_REC_BST	0
T_REC_XST	0
T_REC_TTP	0
T_REC_THO	0
T_REC_SLD	71
T_REC_ALL	514
T_NUM_TAP	357
T_NUM_BRK	10
T_NUM_HLD	76
T_NUM_SLD	71
T_NUM_ALL	514
T_JUDGE_TAP	367
T_JUDGE_HLD	252
T_JUDGE_SLD	71
T_JUDGE_ALL	690
TTM_EACHPAIRS	77
TTM_SCR_TAP	178500
TTM_SCR_BRK	26000
TTM_SCR_HLD	76000
TTM_SCR_SLD	106500
TTM_SCR_ALL	387000
TTM_SCR_S	374450
TTM_SCR_SS	386000
TTM_RAT_ACV	10025

