VERSION	0.00.00	1.03.00
FES_MODE	0
BPM_DEF	110.000	110.000	110.000	110.000
MET_DEF	4	4
RESOLUTION	384
CLK_DEF	384
COMPATIBLE_CODE	MA2

BPM	0	0	110.000
MET	0	0	4	4
MET	41	0	4	2
MET	41	192	4	4
MET	49	192	4	2
MET	50	0	4	4

TAP	2	0	1
TAP	2	48	1
TAP	2	96	2
TAP	2	144	2
STR	2	192	3
SI_	2	192	3	96	48	7
TAP	2	192	4
TAP	3	0	6
TAP	3	48	6
TAP	3	96	5
TAP	3	144	5
TAP	3	192	3
STR	3	192	4
SI_	3	192	4	96	48	0
TAP	4	0	1
TAP	4	48	1
TAP	4	96	2
TAP	4	144	2
TAP	4	192	3
TAP	4	240	3
TAP	4	288	4
TAP	4	336	4
TAP	5	0	5
TAP	5	48	5
TAP	5	96	6
TAP	5	144	6
STR	5	192	0
SI_	5	192	0	96	48	4
STR	5	192	7
SI_	5	192	7	96	48	3
HLD	6	0	5	96
HLD	6	96	4	72
STR	6	168	5
SI_	6	168	5	96	48	1
TAP	6	216	5
TAP	7	0	2
TAP	7	48	2
TAP	7	96	3
TAP	7	144	3
STR	7	192	2
SI_	7	192	2	96	48	7
STR	7	192	3
SI_	7	192	3	96	48	6
TAP	8	0	5
TAP	8	48	5
TAP	8	96	4
TAP	8	144	4
TAP	8	192	3
TAP	8	240	3
TAP	8	288	2
TAP	8	336	2
TAP	9	0	1
TAP	9	48	1
TAP	9	96	0
TAP	9	144	0
STR	9	192	7
SCR	9	192	7	96	48	2
STR	10	0	0
SCL	10	0	0	96	48	5
STR	10	192	6
SCR	10	192	6	96	48	1
TAP	11	0	2
TAP	11	48	2
TAP	11	96	3
TAP	11	144	3
TAP	11	192	4
TAP	11	240	4
TAP	11	288	5
TAP	11	336	5
TAP	12	0	3
TAP	12	0	4
TAP	12	72	2
TAP	12	72	5
TAP	12	144	1
TAP	12	144	6
TAP	12	216	0
TAP	12	216	7
BRK	12	288	2
BRK	12	288	5
TAP	13	0	3
TAP	13	48	3
TAP	13	96	4
TAP	13	144	3
STR	13	192	2
SCR	13	192	2	96	48	5
TAP	14	0	4
TAP	14	48	4
TAP	14	96	3
TAP	14	144	4
STR	14	192	5
SCL	14	192	5	96	48	2
HLD	15	0	1	96
TAP	15	96	0
HLD	15	192	6	96
TAP	15	288	7
TAP	16	0	1
TAP	16	48	0
TAP	16	96	7
STR	16	144	6
SSL	16	144	6	96	96	2
HLD	17	0	1	96
TAP	17	96	0
TAP	17	192	2
TAP	17	240	3
TAP	17	288	1
TAP	17	288	4
HLD	18	0	6	96
TAP	18	96	7
TAP	18	192	5
TAP	18	240	4
TAP	18	288	3
TAP	18	288	6
TAP	19	0	0
TAP	19	0	1
TAP	19	96	6
TAP	19	96	7
TAP	19	192	1
TAP	19	240	3
TAP	19	288	4
TAP	19	336	6
HLD	20	0	7	96
HLD	20	96	6	96
HLD	20	192	5	96
STR	20	288	4
SCR	20	288	4	96	192	3
BRK	21	288	0
BRK	21	288	7
TAP	22	0	6
TAP	22	48	5
TAP	22	96	4
TAP	22	144	3
STR	22	192	2
SI_	22	192	2	96	48	6
TAP	23	0	5
TAP	23	0	7
TAP	23	96	0
TAP	23	96	2
TAP	23	192	6
TAP	23	240	4
TAP	23	288	3
TAP	23	336	1
STR	24	0	0
SI_	24	0	0	96	48	2
STR	24	96	6
SI_	24	96	6	96	48	4
STR	24	192	7
SI_	24	192	7	96	48	3
HLD	25	0	4	96
TAP	25	96	3
STR	25	192	2
SI_	25	192	2	96	48	7
TAP	25	288	3
STR	26	0	5
SI_	26	0	5	96	48	0
TAP	26	96	4
TAP	26	192	1
TAP	26	240	0
TAP	26	288	7
TAP	26	336	6
STR	27	0	5
SI_	27	0	5	96	48	0
TAP	27	96	4
STR	27	192	2
SI_	27	192	2	96	48	7
TAP	27	288	3
TAP	28	0	4
TAP	28	48	5
TAP	28	96	6
TAP	28	144	7
TAP	28	192	0
TAP	28	240	1
TAP	28	288	2
TAP	28	336	3
STR	29	0	4
SI_	29	0	4	96	48	0
TAP	29	0	5
TAP	29	192	0
STR	29	192	7
SI_	29	192	7	96	48	3
STR	30	0	2
SI_	30	0	2	96	48	6
TAP	30	0	3
STR	30	192	6
SI_	30	192	6	96	48	2
TAP	30	192	7
TAP	31	0	2
STR	31	0	3
SI_	31	0	3	96	48	7
STR	31	192	0
SI_	31	192	0	96	48	4
TAP	31	192	7
TAP	32	0	5
TAP	32	48	6
TAP	32	96	7
TAP	32	144	0
TAP	32	192	1
TAP	32	240	2
BRK	32	288	3
BRK	32	288	4
STR	33	0	3
SCL	33	0	3	96	192	4
TAP	33	0	4
TAP	34	0	3
STR	34	0	4
SCR	34	0	4	96	192	3
STR	35	0	2
SCL	35	0	2	96	144	5
TAP	35	0	5
TAP	35	288	4
TAP	35	336	3
TAP	36	0	2
STR	36	0	5
SCR	36	0	5	96	144	2
TAP	36	288	3
TAP	36	336	4
TAP	37	0	2
TAP	37	0	5
TAP	37	48	2
TAP	37	48	5
TAP	37	96	1
TAP	37	96	4
TAP	37	144	1
TAP	37	144	4
TAP	37	192	0
TAP	37	240	7
TAP	37	288	1
TAP	37	288	6
TAP	38	0	2
TAP	38	0	5
TAP	38	48	2
TAP	38	48	5
TAP	38	96	3
TAP	38	96	6
TAP	38	144	3
TAP	38	144	6
TAP	38	192	7
TAP	38	240	0
TAP	38	288	1
TAP	38	288	6
TAP	39	0	2
TAP	39	0	5
TAP	39	48	1
TAP	39	48	4
TAP	39	96	0
TAP	39	96	3
TAP	39	192	2
TAP	39	192	5
TAP	39	240	3
TAP	39	240	6
TAP	39	288	4
TAP	39	288	7
TAP	40	0	0
TAP	40	0	7
TAP	40	48	0
TAP	40	48	7
TAP	40	96	1
TAP	40	96	6
TAP	40	144	1
TAP	40	144	6
TAP	40	192	2
TAP	40	192	5
TAP	40	240	2
TAP	40	240	5
TAP	40	288	3
TAP	40	288	4
STR	40	336	3
SCL	40	336	3	96	72	0
STR	40	336	4
SCR	40	336	4	96	72	7
TAP	41	192	0
TAP	41	192	7
TAP	41	240	1
TAP	41	288	2
TAP	41	336	3
STR	42	0	4
SI_	42	0	4	96	48	1
STR	42	0	5
SI_	42	0	5	96	48	0
TAP	42	192	0
TAP	42	192	7
TAP	42	240	6
TAP	42	288	5
TAP	42	336	4
STR	43	0	2
SI_	43	0	2	96	48	7
STR	43	0	3
SI_	43	0	3	96	48	6
TAP	43	192	0
TAP	43	192	4
TAP	43	240	1
TAP	43	240	5
TAP	43	288	2
TAP	43	288	6
TAP	43	336	3
TAP	43	336	7
TAP	44	0	0
TAP	44	0	4
TAP	44	48	3
TAP	44	48	7
TAP	44	96	2
TAP	44	96	6
TAP	44	144	1
TAP	44	144	5
TAP	44	192	0
TAP	44	240	1
TAP	44	240	7
TAP	44	288	6
TAP	44	336	5
TAP	44	336	7
STR	45	0	0
SF_	45	0	0	96	48	4
TAP	45	192	6
TAP	45	192	7
TAP	45	240	5
TAP	45	288	4
TAP	45	336	3
STR	46	0	1
SI_	46	0	1	96	48	6
STR	46	0	2
SI_	46	0	2	96	48	5
TAP	46	192	0
TAP	46	192	1
TAP	46	240	2
TAP	46	288	3
TAP	46	336	4
STR	47	0	5
SI_	47	0	5	96	48	2
STR	47	0	6
SI_	47	0	6	96	48	1
TAP	47	192	0
HLD	47	192	7	96
HLD	47	288	5	96
HLD	48	0	3	96
HLD	48	96	1	96
TAP	48	192	7
TAP	48	240	0
TAP	48	240	6
TAP	48	288	1
TAP	48	336	0
TAP	48	336	2
STR	49	0	7
SF_	49	0	7	96	48	3
BRK	49	192	1
BRK	49	192	5
HLD	50	0	1	72
HLD	50	72	2	72
HLD	50	144	3	72
HLD	50	216	4	72
TAP	50	288	5
HLD	51	0	6	72
HLD	51	72	5	72
HLD	51	144	4	72
HLD	51	216	3	72
TAP	51	288	2
HLD	52	0	1	72
HLD	52	72	0	72
HLD	52	144	7	72
HLD	52	216	6	72
TAP	52	288	5
HLD	53	0	6	72
HLD	53	72	7	72
HLD	53	144	0	72
HLD	53	216	1	72
TAP	53	288	2
HLD	54	0	3	72
HLD	54	72	1	72
HLD	54	144	7	72
HLD	54	216	5	72
TAP	54	288	3
HLD	55	0	4	72
HLD	55	72	6	72
HLD	55	144	0	72
HLD	55	216	2	72
TAP	55	288	4
HLD	56	0	6	72
HLD	56	72	5	72
TAP	56	144	4
HLD	56	192	1	72
HLD	56	264	2	72
TAP	56	336	3
HLD	57	0	7	72
HLD	57	72	6	72
TAP	57	144	5
HLD	57	192	0	72
HLD	57	264	1	72
TAP	57	336	2
HLD	58	0	3	144
HLD	58	0	4	144
TAP	58	192	2
TAP	58	240	3
TAP	58	288	4
TAP	58	336	5
TAP	59	0	6
TAP	59	48	7
TAP	59	96	0
TAP	59	144	1
TAP	59	144	6
BST	59	288	3
SCL	59	288	3	96	288	0
BST	59	288	4
SCR	59	288	4	96	288	7

T_REC_TAP	253
T_REC_BRK	8
T_REC_XTP	0
T_REC_HLD	48
T_REC_XHO	0
T_REC_STR	44
T_REC_BST	2
T_REC_XST	0
T_REC_TTP	0
T_REC_THO	0
T_REC_SLD	46
T_REC_ALL	401
T_NUM_TAP	297
T_NUM_BRK	10
T_NUM_HLD	48
T_NUM_SLD	46
T_NUM_ALL	401
T_JUDGE_TAP	307
T_JUDGE_HLD	163
T_JUDGE_SLD	46
T_JUDGE_ALL	516
TTM_EACHPAIRS	76
TTM_SCR_TAP	148500
TTM_SCR_BRK	26000
TTM_SCR_HLD	48000
TTM_SCR_SLD	69000
TTM_SCR_ALL	291500
TTM_SCR_S	281800
TTM_SCR_SS	290500
TTM_RAT_ACV	10034

