VERSION	0.00.00	1.03.00
FES_MODE	0
BPM_DEF	110.000	110.000	110.000	110.000
MET_DEF	4	4
RESOLUTION	384
CLK_DEF	384
COMPATIBLE_CODE	MA2

BPM	0	0	110.000
MET	0	0	4	4
MET	41	0	4	2
MET	41	192	4	4
MET	49	192	4	2
MET	50	0	4	4
MET	58	0	4	2
MET	58	192	4	4

TAP	2	0	0
TAP	2	192	0
TAP	2	192	1
TAP	3	0	2
TAP	3	192	2
TAP	3	192	3
TAP	4	0	4
TAP	4	96	4
TAP	4	192	5
TAP	4	288	5
TAP	5	0	6
TAP	5	96	6
TAP	5	192	7
BRK	5	288	7
TAP	6	0	7
TAP	6	192	6
TAP	6	192	7
TAP	7	0	5
TAP	7	192	4
TAP	7	192	5
TAP	8	0	3
TAP	8	96	3
TAP	8	192	2
TAP	8	288	2
TAP	9	0	1
TAP	9	96	1
TAP	9	192	0
BRK	9	288	0
TAP	10	0	0
TAP	10	0	1
TAP	10	192	2
TAP	10	192	3
TAP	11	0	4
TAP	11	0	5
TAP	11	192	6
TAP	11	192	7
HLD	12	0	0	288
HLD	12	0	7	288
TAP	13	0	0
TAP	13	96	0
TAP	13	192	1
TAP	13	288	1
TAP	14	0	2
TAP	14	96	2
TAP	14	192	3
TAP	14	288	3
TAP	15	0	4
TAP	15	96	4
TAP	15	192	5
TAP	15	288	5
TAP	16	0	6
TAP	16	96	6
TAP	16	192	7
BRK	16	288	7
TAP	17	0	0
TAP	17	96	0
TAP	17	192	0
TAP	17	240	0
TAP	17	288	0
TAP	18	0	1
TAP	18	96	1
TAP	18	192	1
TAP	18	240	1
TAP	18	288	1
TAP	19	0	2
TAP	19	96	2
TAP	19	192	2
TAP	19	240	2
TAP	19	288	2
HLD	20	0	3	96
HLD	20	192	4	96
TAP	21	0	3
TAP	21	96	3
TAP	21	192	3
TAP	21	192	4
TAP	21	288	3
TAP	21	288	4
TAP	22	0	5
TAP	22	96	5
TAP	22	192	6
TAP	22	288	6
TAP	23	0	7
TAP	23	96	7
TAP	23	192	0
TAP	23	288	0
TAP	24	0	6
TAP	24	0	7
TAP	24	96	6
TAP	24	96	7
TAP	24	192	0
TAP	24	192	1
TAP	24	288	0
TAP	24	288	1
STR	25	0	7
SI_	25	0	7	96	288	3
STR	27	0	0
SI_	27	0	0	96	288	4
TAP	29	0	7
TAP	29	192	7
TAP	30	0	6
TAP	30	192	6
TAP	31	0	5
TAP	31	192	5
TAP	32	0	4
TAP	32	192	4
HLD	33	0	3	192
HLD	34	0	2	192
HLD	35	0	1	192
HLD	36	0	0	192
BRK	37	0	0
TAP	37	96	0
TAP	37	192	1
TAP	37	288	0
TAP	37	288	1
TAP	38	0	2
TAP	38	96	2
TAP	38	192	3
TAP	38	288	2
TAP	38	288	3
TAP	39	0	4
TAP	39	96	4
TAP	39	192	5
TAP	39	288	4
TAP	39	288	5
TAP	40	0	6
TAP	40	96	6
TAP	40	192	7
TAP	40	288	6
TAP	40	288	7
BRK	41	0	0
BRK	41	0	7
TAP	41	192	7
TAP	41	240	7
TAP	41	288	7
TAP	42	0	6
TAP	42	48	6
TAP	42	96	6
TAP	42	192	5
TAP	42	240	5
TAP	42	288	5
TAP	43	0	4
TAP	43	48	4
TAP	43	96	4
TAP	43	192	3
TAP	43	240	3
TAP	43	288	3
TAP	44	0	2
TAP	44	48	2
TAP	44	96	2
TAP	44	192	1
TAP	44	240	1
TAP	44	288	1
TAP	45	0	0
TAP	45	48	0
TAP	45	96	0
TAP	45	96	7
TAP	45	192	1
TAP	45	240	0
TAP	45	288	1
HLD	46	0	7	96
TAP	46	192	6
TAP	46	240	7
TAP	46	288	6
HLD	47	0	0	96
TAP	47	192	1
TAP	47	240	1
TAP	47	288	1
TAP	48	0	2
TAP	48	48	2
TAP	48	96	2
TAP	48	192	3
TAP	48	240	3
TAP	48	288	3
TAP	49	0	4
TAP	49	48	4
TAP	49	96	4
BRK	49	192	3
BRK	49	192	4
HLD	50	0	3	192
HLD	50	0	4	192
HLD	51	0	2	192
HLD	51	0	5	192
HLD	52	0	1	192
HLD	52	0	6	192
HLD	53	0	0	192
HLD	53	0	7	192
TAP	54	0	7
TAP	54	48	7
TAP	54	96	7
TAP	54	192	6
TAP	54	240	6
TAP	54	288	6
TAP	55	0	5
TAP	55	48	5
TAP	55	96	5
TAP	55	192	4
TAP	55	240	4
TAP	55	288	4
TAP	56	0	3
TAP	56	48	3
TAP	56	96	3
TAP	56	192	2
TAP	56	240	2
TAP	56	288	2
TAP	57	0	1
TAP	57	48	1
TAP	57	96	1
TAP	57	192	0
TAP	57	240	0
TAP	57	288	0
BRK	58	0	7
TAP	58	192	0
TAP	58	288	7
TAP	59	0	6
TAP	59	96	5
STR	59	192	5
SI_	59	192	5	96	288	2

T_REC_TAP	184
T_REC_BRK	9
T_REC_XTP	0
T_REC_HLD	18
T_REC_XHO	0
T_REC_STR	3
T_REC_BST	0
T_REC_XST	0
T_REC_TTP	0
T_REC_THO	0
T_REC_SLD	3
T_REC_ALL	217
T_NUM_TAP	187
T_NUM_BRK	9
T_NUM_HLD	18
T_NUM_SLD	3
T_NUM_ALL	217
T_JUDGE_TAP	196
T_JUDGE_HLD	136
T_JUDGE_SLD	3
T_JUDGE_ALL	335
TTM_EACHPAIRS	26
TTM_SCR_TAP	93500
TTM_SCR_BRK	23400
TTM_SCR_HLD	18000
TTM_SCR_SLD	4500
TTM_SCR_ALL	139400
TTM_SCR_S	134350
TTM_SCR_SS	138500
TTM_RAT_ACV	10064

