VERSION	0.00.00	1.03.00
FES_MODE	0
BPM_DEF	210.000	210.000	210.000	210.000
MET_DEF	4	4
RESOLUTION	384
CLK_DEF	384
COMPATIBLE_CODE	MA2

BPM	0	0	210.000
MET	0	0	4	4

TAP	1	288	6
STR	1	336	6
SCL	1	336	6	96	288	2
HLD	2	192	0	144
TAP	3	96	0
TAP	3	192	1
TAP	3	192	7
TAP	3	288	2
TAP	3	288	6
STR	4	0	3
SXR	4	0	3	96	336	0
STR	4	0	5
SXL	4	0	5	96	336	0
TAP	4	96	3
TAP	4	96	5
TAP	5	288	1
TAP	5	288	7
STR	5	336	1
SCR	5	336	1	96	288	5
HLD	5	336	7	384
TAP	7	96	7
TAP	7	192	0
TAP	7	192	6
TAP	7	288	1
TAP	7	288	5
STR	7	336	1
SXL	7	336	1	96	336	4
STR	7	336	5
SXL	7	336	5	96	336	0
TAP	9	288	7
HLD	9	336	7	240
TAP	10	0	3
TAP	10	192	2
TAP	10	336	0
TAP	11	0	1
TAP	11	96	7
TAP	11	192	0
TAP	11	192	6
TAP	11	288	5
TAP	12	0	1
STR	12	0	4
SXL	12	0	4	96	288	7
TAP	12	96	4
TAP	12	192	2
TAP	13	0	3
TAP	13	192	3
TAP	13	192	4
TAP	13	288	0
HLD	13	336	0	240
TAP	14	0	4
TAP	14	192	5
TAP	14	288	7
TAP	14	336	7
TAP	15	0	6
TAP	15	96	0
TAP	15	192	1
TAP	15	192	7
TAP	15	288	2
TAP	16	0	3
TAP	16	0	6
TAP	16	192	5
HLD	17	0	3	192
HLD	17	0	4	192
BRK	17	336	1
BRK	17	336	6
TAP	18	48	2
TAP	18	96	2
TAP	18	192	0
TAP	18	192	1
TAP	18	240	0
STR	18	240	1
SI_	18	240	1	96	48	4
TAP	18	336	7
TAP	19	48	5
TAP	19	96	5
TAP	19	192	6
TAP	19	192	7
STR	19	240	6
SI_	19	240	6	96	48	3
TAP	19	240	7
TAP	19	336	0
TAP	20	48	2
TAP	20	96	2
TAP	20	192	0
TAP	20	192	1
TAP	20	240	0
STR	20	240	1
SI_	20	240	1	96	48	4
TAP	20	336	7
TAP	21	48	5
TAP	21	96	5
TAP	21	192	6
TAP	21	192	7
STR	21	240	6
SI_	21	240	6	96	48	3
TAP	21	240	7
TAP	21	336	0
TAP	22	48	2
TAP	22	96	2
TAP	22	192	0
TAP	22	192	1
STR	22	240	0
SI_	22	240	0	96	48	4
TAP	22	240	1
TAP	22	336	7
TAP	23	48	5
TAP	23	96	5
TAP	23	192	6
TAP	23	192	7
TAP	23	240	6
STR	23	240	7
SI_	23	240	7	96	48	3
TAP	23	336	0
TAP	24	48	2
TAP	24	96	2
TAP	24	192	0
TAP	24	192	1
STR	24	240	0
SI_	24	240	0	96	48	4
TAP	24	240	1
TAP	24	336	7
TAP	25	48	5
TAP	25	96	5
TAP	25	192	6
TAP	25	192	7
TAP	25	240	6
STR	25	240	7
SI_	25	240	7	96	48	3
TAP	25	336	0
TAP	26	48	1
STR	26	96	1
SI_	26	96	1	96	48	3
TAP	26	192	4
STR	26	240	4
SI_	26	240	4	96	48	0
TAP	26	336	2
TAP	27	48	3
STR	27	96	3
SI_	27	96	3	96	48	7
TAP	27	192	6
STR	27	240	6
SI_	27	240	6	96	48	4
TAP	27	336	0
TAP	28	48	1
STR	28	96	1
SI_	28	96	1	96	48	5
TAP	28	192	6
STR	28	240	6
SI_	28	240	6	96	48	0
TAP	28	336	3
TAP	29	48	2
STR	29	96	2
SI_	29	96	2	96	48	4
TAP	29	192	5
TAP	29	240	5
TAP	29	336	0
TAP	29	336	1
TAP	30	48	6
STR	30	96	6
SI_	30	96	6	96	48	4
TAP	30	192	3
STR	30	240	3
SI_	30	240	3	96	48	7
TAP	30	336	5
TAP	31	48	4
STR	31	96	4
SI_	31	96	4	96	48	0
TAP	31	192	1
STR	31	240	1
SI_	31	240	1	96	48	3
TAP	31	336	7
TAP	32	48	6
STR	32	96	6
SI_	32	96	6	96	48	2
TAP	32	192	1
STR	32	240	1
SI_	32	240	1	96	48	7
TAP	32	336	4
TAP	33	48	5
STR	33	96	5
SI_	33	96	5	96	48	3
TAP	33	192	2
TAP	33	240	2
HLD	33	336	6	144
TAP	33	336	7
TAP	34	96	4
TAP	34	192	0
HLD	34	192	1	96
TAP	34	288	3
HLD	34	336	3	144
HLD	35	96	4	96
HLD	35	192	5	96
HLD	35	288	6	96
STR	36	0	7
SUR	36	0	7	96	144	0
TAP	36	96	0
TAP	36	288	2
TAP	36	336	2
TAP	37	48	5
TAP	37	96	4
TAP	37	96	5
TAP	37	192	2
TAP	37	192	3
TAP	37	288	4
TAP	37	336	3
STR	37	336	4
SXL	37	336	4	96	240	7
TAP	38	96	1
TAP	38	288	0
HLD	38	336	0	144
HLD	39	96	7	96
HLD	39	192	6	96
TAP	39	288	5
TAP	39	336	5
TAP	40	96	1
TAP	40	96	6
TAP	40	192	2
TAP	40	240	0
STR	40	240	1
SI_	40	240	1	96	48	3
TAP	40	336	0
TAP	40	336	1
TAP	41	48	5
STR	41	96	6
SI_	41	96	6	96	48	4
TAP	41	96	7
TAP	41	192	6
TAP	41	192	7
TAP	41	288	1
HLD	41	336	1	144
TAP	42	96	3
HLD	42	192	6	96
TAP	42	192	7
TAP	42	288	4
HLD	42	336	4	144
HLD	43	96	3	96
HLD	43	192	2	96
TAP	43	288	1
TAP	43	336	1
STR	44	48	0
SUL	44	48	0	96	144	7
TAP	44	48	7
TAP	44	288	5
TAP	44	336	5
TAP	45	48	2
TAP	45	96	2
TAP	45	96	3
TAP	45	192	4
TAP	45	192	5
TAP	45	288	3
STR	45	336	3
SXR	45	336	3	96	240	0
TAP	45	336	4
TAP	46	96	6
TAP	46	288	7
HLD	46	336	7	144
HLD	47	96	0	96
HLD	47	192	1	96
HLD	47	288	2	96
TAP	48	0	3
TAP	48	48	3
TAP	48	96	2
TAP	48	96	4
TAP	48	192	6
TAP	48	240	5
TAP	48	240	7
TAP	48	336	2
TAP	49	0	1
TAP	49	0	3
TAP	49	96	5
TAP	49	144	4
TAP	49	144	6
TAP	49	240	1
TAP	49	288	0
TAP	49	288	2
STR	50	0	5
SCR	50	0	5	96	96	0
STR	50	144	2
SCR	50	144	2	96	96	5
STR	50	288	7
SCR	50	288	7	96	288	6
TAP	51	96	7
TAP	51	192	0
TAP	51	288	1
STR	52	0	2
SCL	52	0	2	96	96	7
STR	52	144	5
SCL	52	144	5	96	96	2
STR	52	288	0
SCL	52	288	0	96	288	1
TAP	53	96	0
TAP	53	192	7
TAP	53	288	6
STR	54	0	5
SCR	54	0	5	96	96	0
STR	54	144	1
SUL	54	144	1	96	96	4
STR	54	288	7
SCR	54	288	7	96	288	6
TAP	55	96	7
TAP	55	192	0
TAP	55	288	1
STR	56	0	2
SCL	56	0	2	96	96	7
STR	56	144	6
SUR	56	144	6	96	96	3
STR	56	288	0
SCL	56	288	0	96	288	1
TAP	57	96	0
TAP	57	192	7
TAP	57	288	6
TAP	58	0	5
TAP	58	96	4
TAP	58	96	6
TAP	58	144	4
TAP	58	144	6
TAP	58	240	3
TAP	58	240	7
TAP	58	288	3
TAP	58	288	7
STR	59	0	0
SI_	59	0	0	96	48	4
STR	59	0	1
SI_	59	0	1	96	48	3
STR	59	192	6
SI_	59	192	6	96	48	4
STR	59	192	7
SI_	59	192	7	96	48	3
TAP	60	0	2
TAP	60	96	1
TAP	60	96	3
TAP	60	144	1
TAP	60	144	3
TAP	60	240	0
TAP	60	240	4
TAP	60	288	0
TAP	60	288	4
STR	61	0	6
SI_	61	0	6	96	48	4
STR	61	0	7
SI_	61	0	7	96	48	3
STR	61	192	0
SI_	61	192	0	96	48	4
STR	61	192	1
SI_	61	192	1	96	48	3
TAP	62	0	2
TAP	62	0	5
STR	62	96	1
SI_	62	96	1	96	48	4
STR	62	192	7
SI_	62	192	7	96	48	3
STR	62	288	0
SI_	62	288	0	96	48	4
STR	63	0	6
SI_	63	0	6	96	48	3
TAP	63	96	1
TAP	63	144	1
STR	63	240	3
SCL	63	240	3	96	240	4
STR	63	240	4
SCR	63	240	4	96	240	3
TAP	63	336	3
TAP	63	336	4
TAP	64	288	0
TAP	64	288	7
TAP	64	336	0
TAP	64	336	7
TAP	65	48	2
TAP	65	48	6
STR	65	96	2
SI_	65	96	2	96	48	5
STR	65	96	6
SI_	65	96	6	96	48	1
BRK	65	192	2
BRK	65	192	6
TAP	66	0	0
STR	66	0	7
SI_	66	0	7	96	48	3
STR	66	96	1
SI_	66	96	1	96	48	4
STR	66	192	6
SI_	66	192	6	96	48	2
STR	66	288	7
SI_	66	288	7	96	48	3
HLD	67	0	4	96
TAP	67	96	2
HLD	67	144	2	96
TAP	67	240	0
STR	67	288	0
SUL	67	288	0	96	48	4
SUR	67	288	0	96	48	4
BRK	68	0	0
TAP	68	96	2
TAP	68	96	6
HLD	68	192	0	96
TAP	68	192	4
TAP	68	288	7
TAP	68	336	7
TAP	69	48	0
TAP	69	48	1
TAP	69	96	0
STR	69	96	1
SI_	69	96	1	96	48	4
TAP	69	192	1
STR	69	192	6
SI_	69	192	6	96	48	3
TAP	69	288	6
TAP	69	288	7
HLD	70	0	2	96
TAP	70	96	0
STR	70	144	0
SCL	70	144	0	96	48	5
TAP	70	240	4
TAP	70	288	3
HLD	70	336	2	96
TAP	71	48	0
HLD	71	96	0	96
HLD	71	192	6	96
TAP	71	288	4
TAP	71	336	3
BRK	72	0	2
TAP	72	96	0
TAP	72	96	1
BRK	72	144	0
BRK	72	144	1
TAP	72	240	7
TAP	72	288	6
BRK	72	336	4
BRK	72	336	5
TAP	73	96	0
TAP	73	96	7
STR	73	192	1
SI_	73	192	1	96	48	4
STR	73	192	6
SI_	73	192	6	96	48	3
BRK	73	288	1
BRK	73	288	6
STR	74	0	0
SI_	74	0	0	96	48	4
TAP	74	0	7
STR	74	96	6
SI_	74	96	6	96	48	3
STR	74	192	1
SI_	74	192	1	96	48	5
STR	74	288	0
SI_	74	288	0	96	48	4
HLD	75	0	3	96
TAP	75	96	5
HLD	75	144	5	96
TAP	75	240	7
STR	75	288	7
SUL	75	288	7	96	48	3
SUR	75	288	7	96	48	3
BRK	76	0	7
TAP	76	96	1
TAP	76	96	5
TAP	76	192	3
HLD	76	192	7	96
TAP	76	288	0
TAP	76	336	0
TAP	77	48	6
TAP	77	48	7
STR	77	96	6
SI_	77	96	6	96	48	3
TAP	77	96	7
STR	77	192	1
SI_	77	192	1	96	48	4
TAP	77	192	6
TAP	77	288	0
TAP	77	288	1
HLD	78	0	5	96
TAP	78	96	7
STR	78	144	7
SCR	78	144	7	96	48	2
TAP	78	240	3
TAP	78	336	5
TAP	79	0	5
TAP	79	96	6
HLD	79	96	7	96
HLD	79	192	1	96
STR	79	288	3
SXR	79	288	3	96	240	0
TAP	80	0	4
TAP	80	96	5
TAP	80	192	6
TAP	80	240	6
BRK	80	336	0
BRK	80	336	7
TAP	81	48	0
TAP	81	96	7
TAP	81	144	0
TAP	81	192	7
TAP	81	240	1
TAP	81	240	6
TAP	81	336	0
TAP	81	336	4
TAP	82	48	1
TAP	82	48	7
TAP	82	96	1
TAP	82	96	7
STR	82	192	6
SI_	82	192	6	96	48	3
TAP	82	288	6
TAP	82	288	7
STR	83	0	1
SI_	83	0	1	96	48	4
TAP	83	96	0
TAP	83	96	1
STR	83	192	6
SI_	83	192	6	96	48	3
TAP	83	288	6
TAP	83	288	7
STR	84	0	1
SI_	84	0	1	96	48	4
TAP	84	96	0
TAP	84	96	1
TAP	84	192	7
TAP	84	240	0
STR	84	240	7
SXR	84	240	7	96	240	3
TAP	84	336	0
BRK	84	336	7
TAP	85	48	1
TAP	85	96	1
TAP	85	192	2
TAP	85	240	2
TAP	85	336	3
TAP	85	336	7
TAP	86	48	0
TAP	86	48	6
TAP	86	96	0
TAP	86	96	6
STR	86	192	0
SI_	86	192	0	96	48	4
TAP	86	288	0
TAP	86	288	1
STR	87	0	7
SI_	87	0	7	96	48	3
TAP	87	96	6
TAP	87	96	7
STR	87	192	0
SI_	87	192	0	96	48	4
TAP	87	288	0
TAP	87	288	1
STR	88	0	7
SI_	88	0	7	96	48	3
TAP	88	96	6
TAP	88	96	7
TAP	88	192	0
STR	88	240	0
SXL	88	240	0	96	240	4
TAP	88	240	7
BRK	88	336	0
TAP	88	336	7
TAP	89	48	6
TAP	89	96	6
TAP	89	192	5
TAP	89	240	5
HLD	89	336	4	96
TAP	90	48	6
STR	90	96	6
SCL	90	96	6	96	96	3
TAP	90	192	7
TAP	90	240	7
HLD	90	336	0	96
TAP	91	48	2
STR	91	96	2
SCL	91	96	2	96	96	7
TAP	91	192	3
TAP	91	240	3
HLD	91	336	4	96
TAP	92	48	6
STR	92	96	6
SCL	92	96	6	96	96	3
TAP	92	192	7
TAP	92	240	7
HLD	92	336	0	96
TAP	93	48	2
STR	93	96	2
SCL	93	96	2	96	96	7
TAP	93	192	3
TAP	93	240	3
HLD	93	336	3	96
TAP	94	48	1
STR	94	96	1
SCR	94	96	1	96	96	4
TAP	94	192	0
TAP	94	240	0
HLD	94	336	7	96
TAP	95	48	5
STR	95	96	5
SCR	95	96	5	96	96	0
TAP	95	192	4
TAP	95	240	4
HLD	95	336	3	96
TAP	96	48	1
STR	96	96	1
SCR	96	96	1	96	96	4
TAP	96	192	0
TAP	96	240	0
HLD	96	336	7	96
TAP	97	48	5
TAP	97	96	5
TAP	97	192	0
TAP	97	216	1
TAP	97	240	2
TAP	97	264	3
TAP	97	288	4
TAP	97	312	5
TAP	97	336	6
TAP	97	360	7
BRK	98	0	0
TAP	98	96	7
TAP	98	144	0
TAP	98	192	7
STR	98	240	0
SI_	98	240	0	96	48	3
STR	98	240	6
SI_	98	240	6	96	48	3
TAP	98	336	0
TAP	98	336	6
TAP	99	96	0
TAP	99	144	7
TAP	99	192	0
STR	99	240	1
SI_	99	240	1	96	48	4
STR	99	240	7
SI_	99	240	7	96	48	4
TAP	99	336	1
TAP	99	336	7
TAP	100	48	3
TAP	100	96	4
TAP	100	144	3
TAP	100	192	2
TAP	100	240	1
TAP	100	288	0
HLD	100	336	7	192
TAP	101	0	0
TAP	101	48	1
TAP	101	96	2
HLD	101	144	3	192
TAP	101	192	4
TAP	101	240	5
TAP	101	288	6
STR	101	336	7
SI_	101	336	7	96	48	3
TAP	102	48	0
HLD	102	96	0	96
TAP	102	192	6
TAP	102	216	5
TAP	102	240	4
TAP	102	288	0
STR	102	336	0
SI_	102	336	0	96	48	4
TAP	102	336	4
TAP	103	48	7
HLD	103	96	7	96
TAP	103	192	1
TAP	103	216	2
TAP	103	240	3
TAP	103	288	7
STR	103	336	3
SCL	103	336	3	96	72	0
STR	103	336	7
SCL	103	336	7	96	72	4
TAP	104	192	6
TAP	104	224	7
TAP	104	256	6
TAP	104	288	1
TAP	104	320	0
TAP	104	352	1
TAP	105	0	5
TAP	105	32	4
TAP	105	64	5
TAP	105	96	2
TAP	105	128	3
TAP	105	160	2
HLD	105	192	5	48
HLD	105	240	4	48
HLD	105	288	3	48
STR	105	336	2
SCL	105	336	2	96	240	5
TAP	106	192	3
STR	106	336	4
SUL	106	336	4	96	240	3
TAP	107	96	1
TAP	107	192	0
TAP	107	288	7
STR	108	0	6
SCR	108	0	6	96	192	1
TAP	108	96	6
TAP	108	336	4
TAP	109	48	3
TAP	109	48	5
TAP	109	96	3
TAP	109	96	5
TAP	109	192	2
TAP	109	192	6
HLD	109	336	1	144
TAP	110	48	0
TAP	110	96	0
TAP	110	192	2
TAP	110	192	7
HLD	110	336	6	144
TAP	111	48	7
TAP	111	96	7
TAP	111	192	0
TAP	111	192	5
HLD	111	336	3	144
TAP	112	48	4
TAP	112	96	4
TAP	112	192	2
TAP	112	192	6
STR	112	240	2
SI_	112	240	2	96	48	7
STR	112	240	6
SI_	112	240	6	96	48	3
TAP	112	336	2
TAP	112	336	6

T_REC_TAP	420
T_REC_BRK	18
T_REC_XTP	0
T_REC_HLD	55
T_REC_XHO	0
T_REC_STR	112
T_REC_BST	0
T_REC_XST	0
T_REC_TTP	0
T_REC_THO	0
T_REC_SLD	114
T_REC_ALL	719
T_NUM_TAP	532
T_NUM_BRK	18
T_NUM_HLD	55
T_NUM_SLD	114
T_NUM_ALL	719
T_JUDGE_TAP	550
T_JUDGE_HLD	137
T_JUDGE_SLD	114
T_JUDGE_ALL	801
TTM_EACHPAIRS	128
TTM_SCR_TAP	266000
TTM_SCR_BRK	46800
TTM_SCR_HLD	55000
TTM_SCR_SLD	171000
TTM_SCR_ALL	538800
TTM_SCR_S	520900
TTM_SCR_SS	537000
TTM_RAT_ACV	10033

