VERSION	0.00.00	1.03.00
FES_MODE	0
BPM_DEF	210.000	210.000	210.000	210.000
MET_DEF	4	4
RESOLUTION	384
CLK_DEF	384
COMPATIBLE_CODE	MA2

BPM	0	0	210.000
MET	0	0	4	4

TAP	10	0	3
HLD	10	0	4	576
TAP	10	192	3
TAP	11	0	3
HLD	11	192	3	768
TAP	12	0	4
TAP	12	192	4
TAP	13	0	4
HLD	13	192	4	768
TAP	14	0	3
TAP	14	192	3
TAP	15	0	3
HLD	15	192	3	912
TAP	16	0	4
TAP	16	192	4
HLD	17	0	4	336
TAP	18	96	1
TAP	18	96	6
TAP	18	192	2
TAP	18	288	2
TAP	18	288	3
TAP	19	0	1
TAP	19	96	3
TAP	19	96	4
TAP	19	192	5
TAP	19	288	4
TAP	19	288	5
TAP	20	0	6
TAP	20	96	3
TAP	20	96	4
TAP	20	192	2
TAP	20	288	2
TAP	20	288	3
TAP	21	0	1
TAP	21	96	3
TAP	21	96	4
HLD	21	192	3	144
HLD	21	192	4	144
TAP	22	96	1
TAP	22	96	6
TAP	22	192	5
TAP	22	288	4
TAP	22	288	5
TAP	23	0	6
TAP	23	96	3
TAP	23	96	4
TAP	23	192	2
TAP	23	288	2
TAP	23	288	3
TAP	24	0	1
TAP	24	96	3
TAP	24	96	4
TAP	24	192	5
TAP	24	288	4
TAP	24	288	5
TAP	25	0	6
TAP	25	96	3
TAP	25	96	4
HLD	25	192	3	144
HLD	25	192	4	144
TAP	26	96	2
TAP	26	96	5
TAP	26	192	1
TAP	26	288	0
TAP	26	288	1
TAP	27	0	2
TAP	27	96	0
TAP	27	96	7
TAP	27	192	6
TAP	27	288	6
TAP	27	288	7
TAP	28	0	5
TAP	28	96	0
TAP	28	96	7
TAP	28	192	1
TAP	28	288	0
TAP	28	288	1
TAP	29	0	2
TAP	29	96	0
TAP	29	96	7
HLD	29	192	1	144
HLD	29	192	6	144
TAP	30	96	3
TAP	30	96	4
TAP	30	192	6
TAP	30	288	6
TAP	30	288	7
TAP	31	0	5
TAP	31	96	0
TAP	31	96	7
TAP	31	192	1
TAP	31	288	0
TAP	31	288	1
TAP	32	0	2
TAP	32	96	0
TAP	32	96	7
TAP	32	192	6
TAP	32	288	6
TAP	32	288	7
TAP	33	0	5
TAP	33	96	0
TAP	33	96	7
TAP	33	192	1
TAP	33	192	6
HLD	33	288	5	480
TAP	34	0	4
TAP	34	96	4
TAP	34	192	3
TAP	34	288	3
HLD	35	0	2	288
TAP	35	96	3
TAP	35	192	4
STR	35	288	5
SCR	35	288	5	96	96	0
TAP	36	192	4
TAP	36	288	4
TAP	36	288	5
TAP	37	0	3
TAP	37	96	2
TAP	37	96	3
TAP	37	192	1
TAP	37	192	4
HLD	37	288	2	480
TAP	38	0	3
TAP	38	96	3
TAP	38	192	4
TAP	38	288	4
HLD	39	0	5	288
TAP	39	96	4
TAP	39	192	3
STR	39	288	2
SCL	39	288	2	96	96	7
TAP	40	192	3
TAP	40	288	2
TAP	40	288	3
TAP	41	0	4
TAP	41	96	4
TAP	41	96	5
TAP	41	192	3
TAP	41	192	6
HLD	41	288	5	768
TAP	42	0	4
TAP	42	96	4
TAP	42	192	3
TAP	42	288	3
TAP	43	0	2
TAP	43	96	3
TAP	43	192	4
STR	43	288	6
SCR	43	288	6	96	96	1
TAP	44	192	3
TAP	44	288	2
TAP	44	288	3
TAP	45	0	4
TAP	45	96	4
TAP	45	96	5
TAP	45	192	3
TAP	45	192	6
HLD	45	288	2	768
TAP	46	0	3
TAP	46	96	3
TAP	46	192	4
TAP	46	288	4
TAP	47	0	5
TAP	47	96	4
TAP	47	192	3
STR	47	288	1
SCL	47	288	1	96	96	6
TAP	48	192	4
TAP	48	288	4
TAP	48	288	5
TAP	49	0	3
TAP	49	96	2
TAP	49	96	3
TAP	49	192	1
TAP	49	192	6
HLD	50	0	6	144
HLD	50	144	5	144
TAP	50	288	4
TAP	51	0	3
TAP	51	96	3
TAP	51	192	2
TAP	51	192	4
HLD	52	0	1	144
HLD	52	144	2	144
TAP	52	288	3
TAP	53	0	4
TAP	53	96	4
TAP	53	192	3
TAP	53	192	5
HLD	54	0	6	144
HLD	54	144	5	144
TAP	54	288	4
TAP	55	0	3
TAP	55	96	2
TAP	55	192	0
TAP	55	192	3
HLD	56	0	1	144
HLD	56	144	2	144
TAP	56	288	3
TAP	57	0	4
TAP	57	96	5
TAP	57	192	4
TAP	57	192	7
HLD	58	0	5	672
TAP	58	96	4
TAP	58	192	7
TAP	58	288	7
TAP	59	0	4
TAP	59	96	6
TAP	59	192	4
TAP	59	288	3
TAP	60	0	4
TAP	60	0	6
TAP	60	96	2
STR	60	192	1
SXR	60	192	1	96	288	6
TAP	60	192	4
HLD	62	0	2	672
TAP	62	96	3
TAP	62	192	0
TAP	62	288	0
TAP	63	0	3
TAP	63	96	1
TAP	63	192	3
TAP	63	288	4
TAP	64	0	1
TAP	64	0	3
TAP	64	96	5
TAP	64	192	3
TAP	64	192	6
TAP	64	288	2
TAP	65	0	1
TAP	65	0	4
TAP	65	96	3
TAP	65	96	4
BRK	65	192	1
BRK	65	192	6
TAP	66	0	4
TAP	66	0	6
TAP	66	96	3
TAP	66	96	4
TAP	66	192	1
TAP	66	192	3
TAP	66	288	0
TAP	66	288	7
TAP	67	0	4
TAP	67	0	6
TAP	67	96	3
TAP	67	96	4
STR	67	192	0
SI_	67	192	0	96	96	5
STR	67	192	1
SI_	67	192	1	96	96	4
TAP	68	96	3
TAP	68	96	4
TAP	68	192	0
TAP	68	192	7
TAP	68	288	1
TAP	68	288	6
HLD	69	96	4	96
HLD	69	192	5	96
HLD	69	288	6	96
TAP	70	0	7
TAP	70	96	2
TAP	70	96	3
TAP	70	192	1
TAP	70	192	4
HLD	70	288	5	96
TAP	71	0	4
HLD	71	96	2	96
TAP	71	192	3
HLD	71	288	5	96
HLD	72	0	7	96
HLD	72	96	0	96
HLD	72	192	2	96
TAP	72	288	3
TAP	73	0	1
TAP	73	0	4
TAP	73	96	4
TAP	73	96	5
TAP	73	192	0
TAP	73	192	1
TAP	73	288	2
TAP	73	288	7
TAP	74	0	1
TAP	74	0	3
TAP	74	96	3
TAP	74	96	4
TAP	74	192	4
TAP	74	192	6
TAP	74	288	0
TAP	74	288	7
TAP	75	0	1
TAP	75	0	3
TAP	75	96	3
TAP	75	96	4
STR	75	192	6
SI_	75	192	6	96	96	3
STR	75	192	7
SI_	75	192	7	96	96	2
TAP	76	96	3
TAP	76	96	4
TAP	76	192	0
TAP	76	192	7
TAP	76	288	1
TAP	76	288	6
HLD	77	96	3	96
HLD	77	192	2	96
HLD	77	288	1	96
TAP	78	0	0
TAP	78	96	4
TAP	78	96	5
TAP	78	192	3
TAP	78	192	6
HLD	78	288	2	96
TAP	79	0	3
HLD	79	96	5	96
TAP	79	192	4
TAP	79	288	3
TAP	79	288	6
TAP	80	0	2
TAP	80	0	3
TAP	80	96	1
TAP	80	96	4
TAP	80	192	4
TAP	80	192	5
STR	80	288	0
SCR	80	288	0	96	96	3
STR	80	288	7
SCL	80	288	7	96	96	4
TAP	81	192	1
TAP	81	192	6
HLD	81	288	6	1104
TAP	82	0	7
TAP	82	96	0
TAP	82	192	1
TAP	82	288	2
TAP	83	0	3
TAP	83	96	4
STR	83	192	5
SCL	83	192	5	96	240	7
STR	84	240	7
SUL	84	240	7	96	144	2
TAP	85	192	1
HLD	85	288	1	1104
TAP	86	0	0
TAP	86	96	7
TAP	86	192	6
TAP	86	288	5
TAP	87	0	4
TAP	87	96	3
STR	87	192	2
SCR	87	192	2	96	240	0
STR	88	240	0
SUR	88	240	0	96	144	5
TAP	89	192	3
TAP	89	192	4
TAP	89	288	3
TAP	89	288	4
TAP	90	0	2
TAP	90	96	1
TAP	90	96	3
TAP	90	192	5
TAP	90	288	4
TAP	90	288	6
TAP	91	0	2
TAP	91	96	1
TAP	91	96	3
TAP	91	192	5
TAP	91	288	4
TAP	91	288	6
TAP	92	0	1
TAP	92	96	0
TAP	92	96	2
TAP	92	192	6
TAP	92	288	5
TAP	92	288	7
TAP	93	0	1
TAP	93	96	0
STR	93	96	2
SCR	93	96	2	96	96	5
TAP	94	0	5
TAP	94	96	4
TAP	94	96	6
TAP	94	192	2
TAP	94	288	1
TAP	94	288	3
TAP	95	0	5
TAP	95	96	4
TAP	95	96	6
TAP	95	192	2
TAP	95	288	1
TAP	95	288	3
TAP	96	0	6
TAP	96	96	5
TAP	96	96	7
TAP	96	192	1
TAP	96	288	0
TAP	96	288	2
TAP	97	0	6
TAP	97	96	5
TAP	97	96	7
TAP	97	192	3
TAP	97	192	4
HLD	97	288	2	384
TAP	98	0	3
TAP	98	96	1
TAP	98	192	4
HLD	98	288	5	384
TAP	99	0	4
TAP	99	96	6
TAP	99	192	3
HLD	99	288	2	384
TAP	100	0	3
TAP	100	96	1
TAP	100	192	3
HLD	100	288	5	384
TAP	101	0	4
TAP	101	96	6
TAP	101	192	4
HLD	101	288	2	384
TAP	102	0	3
TAP	102	96	7
TAP	102	192	4
HLD	102	288	5	384
TAP	103	0	4
TAP	103	96	0
TAP	103	192	3
HLD	103	288	2	384
TAP	104	0	3
TAP	104	96	7
TAP	104	192	4
HLD	104	288	5	384
TAP	105	0	3
TAP	105	96	0
TAP	105	192	4
STR	105	288	2
SCL	105	288	2	96	384	5
STR	108	0	5
SCR	108	0	5	96	384	2
HLD	109	336	2	240
TAP	110	192	3
HLD	110	336	3	240
TAP	111	192	4
HLD	111	336	4	240
STR	112	192	5
SCL	112	192	5	96	144	2

T_REC_TAP	354
T_REC_BRK	2
T_REC_XTP	0
T_REC_HLD	54
T_REC_XHO	0
T_REC_STR	19
T_REC_BST	0
T_REC_XST	0
T_REC_TTP	0
T_REC_THO	0
T_REC_SLD	19
T_REC_ALL	448
T_NUM_TAP	373
T_NUM_BRK	2
T_NUM_HLD	54
T_NUM_SLD	19
T_NUM_ALL	448
T_JUDGE_TAP	375
T_JUDGE_HLD	357
T_JUDGE_SLD	19
T_JUDGE_ALL	751
TTM_EACHPAIRS	107
TTM_SCR_TAP	186500
TTM_SCR_BRK	5200
TTM_SCR_HLD	54000
TTM_SCR_SLD	28500
TTM_SCR_ALL	274200
TTM_SCR_S	265800
TTM_SCR_SS	274000
TTM_RAT_ACV	10007

