VERSION	0.00.00	1.03.00
FES_MODE	0
BPM_DEF	210.000	210.000	210.000	210.000
MET_DEF	4	4
RESOLUTION	384
CLK_DEF	384
COMPATIBLE_CODE	MA2

BPM	0	0	210.000
MET	0	0	4	4

HLD	10	0	3	192
HLD	11	0	4	192
HLD	12	0	2	192
HLD	13	0	5	192
TAP	14	0	3
TAP	14	192	3
TAP	15	0	4
TAP	15	192	4
TAP	16	0	2
TAP	16	192	2
TAP	17	0	2
TAP	18	0	1
TAP	18	96	1
TAP	18	192	0
TAP	19	0	6
TAP	19	96	6
TAP	19	192	7
TAP	20	0	0
TAP	20	96	0
TAP	20	192	7
TAP	21	0	7
TAP	21	96	0
TAP	21	192	0
TAP	21	192	7
TAP	22	0	6
TAP	22	96	6
TAP	22	192	7
TAP	23	0	1
TAP	23	96	1
TAP	23	192	0
TAP	24	0	7
TAP	24	96	7
TAP	24	192	0
TAP	25	0	0
TAP	25	0	7
TAP	25	96	0
TAP	25	96	7
TAP	25	192	1
TAP	25	192	6
TAP	26	0	2
TAP	26	96	2
TAP	26	192	3
TAP	27	0	5
TAP	27	96	5
TAP	27	192	4
TAP	28	0	3
TAP	28	96	3
TAP	28	192	4
TAP	29	0	4
TAP	29	96	3
TAP	29	192	3
TAP	29	192	4
TAP	30	0	5
TAP	30	96	5
TAP	30	192	4
TAP	31	0	2
TAP	31	96	2
TAP	31	192	3
TAP	32	0	4
TAP	32	96	4
TAP	32	192	3
TAP	33	0	3
TAP	33	0	4
TAP	33	96	3
TAP	33	96	4
BRK	33	192	2
BRK	33	192	5
TAP	34	0	5
TAP	34	192	4
TAP	34	192	5
TAP	35	0	2
TAP	35	96	3
TAP	35	192	2
TAP	35	192	3
TAP	36	0	5
TAP	36	192	4
TAP	36	192	5
TAP	37	0	3
TAP	37	96	4
TAP	37	192	3
TAP	37	192	4
TAP	38	0	2
TAP	38	192	2
TAP	38	192	3
TAP	39	0	5
TAP	39	96	4
TAP	39	192	4
TAP	39	192	5
TAP	40	0	2
TAP	40	192	2
TAP	40	192	3
TAP	41	0	4
TAP	41	96	3
TAP	41	192	2
TAP	41	192	5
TAP	42	0	6
TAP	42	192	6
TAP	42	192	7
TAP	43	0	1
TAP	43	96	0
TAP	43	192	0
TAP	43	192	1
TAP	44	0	6
TAP	44	192	6
TAP	44	192	7
TAP	45	0	0
TAP	45	96	7
TAP	45	192	0
TAP	45	192	7
TAP	46	0	1
TAP	46	192	0
TAP	46	192	1
TAP	47	0	6
TAP	47	96	7
STR	47	192	6
SXR	47	192	6	96	576	3
STR	47	192	7
SXL	47	192	7	96	576	2
HLD	50	0	1	192
TAP	50	192	0
HLD	51	0	6	192
TAP	51	192	7
HLD	52	0	1	192
STR	52	192	0
SSL	52	192	0	96	336	4
TAP	54	0	5
TAP	54	192	4
TAP	54	192	5
TAP	55	0	2
TAP	55	192	2
TAP	55	192	3
HLD	56	0	3	192
HLD	56	0	4	192
TAP	57	0	4
TAP	57	96	3
TAP	57	192	2
TAP	57	192	5
TAP	58	0	2
TAP	58	192	2
TAP	58	192	3
TAP	59	0	5
TAP	59	192	4
TAP	59	192	5
TAP	60	0	3
TAP	60	96	4
TAP	60	192	3
TAP	60	192	4
TAP	61	0	3
TAP	61	96	3
TAP	61	96	4
TAP	61	192	2
TAP	61	192	5
HLD	62	0	6	192
TAP	62	192	7
HLD	63	0	1	192
STR	63	192	0
SXL	63	192	0	96	480	5
TAP	65	192	7
BRK	66	0	6
TAP	66	96	6
TAP	66	192	6
TAP	66	192	7
TAP	67	0	1
TAP	67	96	1
TAP	67	192	0
TAP	67	192	1
TAP	68	0	6
TAP	68	96	6
TAP	68	192	6
TAP	68	192	7
TAP	69	0	1
TAP	69	96	1
STR	69	192	0
SI_	69	192	0	96	288	5
STR	69	192	1
SI_	69	192	1	96	288	4
TAP	71	0	5
TAP	71	96	5
TAP	71	192	4
TAP	71	288	4
TAP	72	0	3
TAP	72	96	3
TAP	72	192	2
TAP	72	288	3
TAP	73	0	1
TAP	73	0	4
TAP	73	192	0
BRK	74	0	1
TAP	74	96	1
TAP	74	192	0
TAP	74	192	1
TAP	75	0	6
TAP	75	96	6
TAP	75	192	6
TAP	75	192	7
TAP	76	0	1
TAP	76	96	1
TAP	76	192	0
TAP	76	192	1
TAP	77	0	6
TAP	77	96	6
STR	77	192	6
SI_	77	192	6	96	288	3
STR	77	192	7
SI_	77	192	7	96	288	2
HLD	79	0	2	192
TAP	79	192	3
TAP	79	288	3
TAP	80	0	1
TAP	80	96	1
TAP	80	192	0
TAP	80	288	0
TAP	81	0	7
TAP	81	96	7
TAP	81	192	0
TAP	81	192	6
BRK	82	0	1
TAP	82	96	1
TAP	82	192	0
TAP	82	192	2
TAP	83	0	6
TAP	83	96	6
TAP	83	192	5
TAP	83	192	7
TAP	84	0	1
TAP	84	96	1
TAP	84	192	0
TAP	84	288	0
TAP	85	0	7
TAP	85	96	7
TAP	85	192	0
TAP	85	192	6
TAP	86	0	6
TAP	86	96	6
TAP	86	192	5
TAP	86	192	7
TAP	87	0	1
TAP	87	96	1
TAP	87	192	0
TAP	87	192	2
TAP	88	0	6
TAP	88	96	6
TAP	88	192	5
TAP	88	288	5
TAP	89	0	4
TAP	89	96	4
TAP	89	192	3
TAP	89	192	5
TAP	90	0	2
TAP	90	96	2
TAP	90	192	1
TAP	90	192	3
TAP	91	0	5
TAP	91	96	5
TAP	91	192	4
TAP	91	192	6
TAP	92	0	2
TAP	92	96	2
TAP	92	192	3
TAP	92	288	3
TAP	93	0	4
TAP	93	96	4
TAP	93	192	3
TAP	93	192	5
TAP	94	0	5
TAP	94	96	5
TAP	94	192	4
TAP	94	192	6
TAP	95	0	2
TAP	95	96	2
TAP	95	192	1
TAP	95	192	3
TAP	96	0	4
TAP	96	96	4
TAP	96	192	5
TAP	96	288	5
TAP	97	0	6
TAP	97	96	7
TAP	97	192	0
TAP	97	192	5
TAP	98	0	0
TAP	98	96	1
TAP	98	192	2
TAP	98	192	7
TAP	99	0	7
TAP	99	96	6
TAP	99	192	0
TAP	99	192	5
TAP	100	0	0
TAP	100	96	0
TAP	100	192	7
TAP	100	288	7
TAP	101	0	0
TAP	101	0	7
TAP	101	96	0
TAP	101	96	7
TAP	101	192	1
TAP	101	192	6
TAP	102	0	7
TAP	102	96	6
TAP	102	192	0
TAP	102	192	5
TAP	103	0	0
TAP	103	96	1
TAP	103	192	2
TAP	103	192	7
TAP	104	0	7
TAP	104	96	7
TAP	104	192	0
TAP	104	288	0
TAP	105	0	0
TAP	105	0	7
TAP	105	96	1
TAP	105	96	6
TAP	105	192	2
TAP	105	192	5
HLD	106	0	1	384
HLD	107	0	2	384
HLD	108	0	3	384
TAP	109	0	4
HLD	110	0	6	384
HLD	111	0	5	384
HLD	112	0	4	360

T_REC_TAP	284
T_REC_BRK	5
T_REC_XTP	0
T_REC_HLD	18
T_REC_XHO	0
T_REC_STR	8
T_REC_BST	0
T_REC_XST	0
T_REC_TTP	0
T_REC_THO	0
T_REC_SLD	8
T_REC_ALL	323
T_NUM_TAP	292
T_NUM_BRK	5
T_NUM_HLD	18
T_NUM_SLD	8
T_NUM_ALL	323
T_JUDGE_TAP	297
T_JUDGE_HLD	96
T_JUDGE_SLD	8
T_JUDGE_ALL	401
TTM_EACHPAIRS	63
TTM_SCR_TAP	146000
TTM_SCR_BRK	13000
TTM_SCR_HLD	18000
TTM_SCR_SLD	12000
TTM_SCR_ALL	189000
TTM_SCR_S	182850
TTM_SCR_SS	188500
TTM_RAT_ACV	10026

