VERSION	0.00.00	1.03.00
FES_MODE	0
BPM_DEF	210.000	210.000	210.000	210.000
MET_DEF	4	4
RESOLUTION	384
CLK_DEF	384
COMPATIBLE_CODE	MA2

BPM	0	0	210.000
MET	0	0	4	4

TAP	10	0	0
TAP	11	0	0
TAP	12	0	0
TAP	12	0	7
TAP	14	0	7
TAP	15	0	7
TAP	16	0	0
TAP	16	0	7
BRK	17	0	0
BRK	17	0	7
TAP	18	0	0
TAP	18	192	0
TAP	19	0	0
TAP	20	0	1
TAP	20	192	1
TAP	21	0	1
TAP	22	0	2
TAP	22	192	2
TAP	23	0	2
TAP	24	0	3
TAP	24	192	3
TAP	25	0	3
TAP	25	0	4
TAP	26	0	4
TAP	26	192	4
TAP	27	0	4
TAP	28	0	5
TAP	28	192	5
TAP	29	0	5
TAP	30	0	6
TAP	30	192	6
TAP	31	0	6
TAP	32	0	7
TAP	32	192	7
TAP	33	0	0
TAP	33	0	7
HLD	34	0	0	384
STR	36	0	0
SI_	36	0	0	96	288	4
HLD	38	0	7	384
STR	40	0	7
SI_	40	0	7	96	288	3
TAP	42	0	0
TAP	43	0	0
STR	44	0	0
SI_	44	0	0	96	288	4
TAP	46	0	7
TAP	47	0	7
STR	48	0	7
SI_	48	0	7	96	288	3
TAP	50	0	0
TAP	50	192	0
TAP	51	0	0
TAP	51	0	1
TAP	52	0	7
TAP	52	192	7
TAP	53	0	6
TAP	53	0	7
TAP	54	0	0
TAP	54	192	0
TAP	55	0	1
TAP	55	192	1
HLD	56	0	2	384
HLD	56	0	3	384
TAP	58	0	4
TAP	58	192	4
TAP	59	0	5
TAP	59	192	5
TAP	60	0	6
TAP	60	192	6
TAP	61	0	0
TAP	61	0	7
TAP	62	0	0
TAP	62	192	0
TAP	63	0	7
TAP	63	192	7
HLD	64	0	1	384
HLD	64	0	6	384
BRK	66	0	7
TAP	66	96	7
TAP	66	192	7
TAP	67	0	6
TAP	67	96	6
TAP	67	192	6
TAP	68	0	5
TAP	68	96	5
TAP	68	192	5
TAP	69	0	4
TAP	69	96	4
TAP	69	192	4
TAP	70	0	3
TAP	70	192	3
TAP	71	0	2
TAP	71	192	2
TAP	72	0	0
TAP	72	0	1
TAP	72	192	0
TAP	72	192	1
TAP	73	0	0
TAP	73	0	1
TAP	74	0	0
TAP	74	96	0
TAP	74	192	0
TAP	75	0	1
TAP	75	96	1
TAP	75	192	1
TAP	76	0	2
TAP	76	96	2
TAP	76	192	2
TAP	77	0	3
TAP	77	96	3
TAP	77	192	3
TAP	78	0	4
TAP	78	192	4
TAP	79	0	5
TAP	79	192	5
TAP	80	0	6
TAP	80	0	7
TAP	80	192	6
TAP	80	192	7
TAP	81	0	6
TAP	81	0	7
STR	82	0	0
SI_	82	0	0	96	288	3
TAP	84	0	7
TAP	84	192	7
TAP	85	0	7
STR	86	0	7
SI_	86	0	7	96	288	4
TAP	88	0	0
TAP	88	192	0
TAP	89	0	0
STR	90	0	1
SI_	90	0	1	96	288	4
TAP	92	0	7
TAP	92	192	7
TAP	93	0	7
STR	94	0	6
SI_	94	0	6	96	288	3
TAP	96	0	0
TAP	96	192	0
TAP	97	0	0
TAP	98	0	1
TAP	98	192	1
TAP	99	0	2
TAP	99	192	2
TAP	100	0	3
TAP	100	192	3
TAP	101	0	3
TAP	101	0	4
TAP	102	0	5
TAP	102	192	5
TAP	103	0	6
TAP	103	192	6
TAP	104	0	7
TAP	104	192	7
TAP	105	0	0
TAP	105	0	7
TAP	106	0	0
TAP	106	0	1
TAP	107	0	1
TAP	108	0	2
TAP	108	0	3
TAP	109	0	3
TAP	110	0	4
TAP	110	0	5
TAP	111	0	5
TAP	112	0	6
TAP	112	0	7
TAP	113	0	0
TAP	113	0	7

T_REC_TAP	146
T_REC_BRK	3
T_REC_XTP	0
T_REC_HLD	6
T_REC_XHO	0
T_REC_STR	8
T_REC_BST	0
T_REC_XST	0
T_REC_TTP	0
T_REC_THO	0
T_REC_SLD	8
T_REC_ALL	171
T_NUM_TAP	154
T_NUM_BRK	3
T_NUM_HLD	6
T_NUM_SLD	8
T_NUM_ALL	171
T_JUDGE_TAP	157
T_JUDGE_HLD	48
T_JUDGE_SLD	8
T_JUDGE_ALL	213
TTM_EACHPAIRS	23
TTM_SCR_TAP	77000
TTM_SCR_BRK	7800
TTM_SCR_HLD	6000
TTM_SCR_SLD	12000
TTM_SCR_ALL	102800
TTM_SCR_S	99450
TTM_SCR_SS	102500
TTM_RAT_ACV	10029

