VERSION	0.00.00	1.03.00
FES_MODE	0
BPM_DEF	155.000	155.000	155.000	155.000
MET_DEF	4	4
RESOLUTION	384
CLK_DEF	384
COMPATIBLE_CODE	MA2

BPM	0	0	155.000

STR	1	0	2
SCL	1	0	2	96	96	5
TAP	1	0	5
BRK	1	288	0
BRK	1	288	7
STR	2	0	1
SI_	2	0	1	96	48	4
TAP	2	96	0
STR	2	192	6
SI_	2	192	6	96	48	3
TAP	2	288	7
STR	3	0	1
SI_	3	0	1	96	48	4
TAP	3	96	0
TAP	3	192	7
STR	3	288	0
SI_	3	288	0	96	48	4
TAP	3	288	6
STR	4	0	7
SI_	4	0	7	96	48	3
STR	4	96	1
SI_	4	96	1	96	48	4
STR	4	192	6
SI_	4	192	6	96	48	3
STR	4	288	0
SCR	4	288	0	96	192	7
TAP	5	0	7
TAP	5	288	0
TAP	5	288	7
HLD	6	0	2	96
HLD	6	96	0	96
TAP	6	192	1
TAP	6	240	1
TAP	6	288	0
TAP	6	288	2
HLD	7	0	5	96
HLD	7	96	7	96
TAP	7	192	6
TAP	7	240	6
TAP	7	288	5
TAP	7	288	7
TAP	8	0	6
TAP	8	48	6
TAP	8	96	4
TAP	8	144	5
TAP	8	192	1
TAP	8	240	1
TAP	8	288	3
TAP	8	336	2
TAP	9	0	4
TAP	9	48	5
TAP	9	96	6
TAP	9	96	7
TAP	9	144	0
BRK	9	192	1
BRK	9	192	7
TAP	10	0	2
TAP	10	0	3
TAP	10	96	1
TAP	10	96	4
HLD	10	192	6	72
HLD	10	264	5	72
TAP	10	336	4
TAP	11	0	4
TAP	11	96	1
TAP	11	96	3
TAP	11	144	1
TAP	11	144	3
TAP	11	240	2
TAP	11	240	6
TAP	11	288	2
TAP	11	288	6
TAP	12	0	4
TAP	12	0	5
TAP	12	96	3
TAP	12	144	2
HLD	12	192	1	96
TAP	12	192	3
TAP	12	288	0
TAP	13	0	2
TAP	13	0	3
TAP	13	96	4
TAP	13	144	5
TAP	13	192	4
HLD	13	192	6	96
TAP	13	288	7
STR	14	0	0
SCR	14	0	0	96	96	3
TAP	14	0	6
STR	14	96	3
SCR	14	96	3	96	96	6
TAP	14	192	6
TAP	14	288	7
TAP	15	0	0
STR	15	0	7
SCL	15	0	7	96	96	4
STR	15	96	4
SCL	15	96	4	96	96	1
TAP	15	192	1
STR	15	288	0
SCR	15	288	0	96	192	7
TAP	16	288	0
TAP	16	288	7
HLD	17	0	4	96
HLD	17	0	6	96
TAP	17	192	2
TAP	17	240	2
TAP	17	288	1
TAP	17	288	3
TAP	18	0	4
TAP	18	0	5
TAP	18	96	3
TAP	18	96	6
HLD	18	192	1	72
HLD	18	264	2	72
TAP	18	336	3
TAP	19	0	3
TAP	19	96	4
TAP	19	96	6
TAP	19	144	4
TAP	19	144	6
TAP	19	240	1
TAP	19	240	5
TAP	19	288	1
TAP	19	288	5
TAP	20	0	2
TAP	20	0	3
TAP	20	96	4
TAP	20	144	5
TAP	20	192	4
HLD	20	192	6	96
TAP	20	288	7
TAP	21	0	0
TAP	21	0	7
TAP	21	96	1
TAP	21	96	6
TAP	21	144	1
TAP	21	144	6
TAP	21	240	4
TAP	21	240	5
TAP	21	288	4
STR	21	288	5
SCR	21	288	5	96	192	2
TAP	22	0	3
STR	22	288	2
SCL	22	288	2	96	192	5
TAP	22	288	3
TAP	23	0	4
TAP	23	288	3
STR	23	288	6
SCL	23	288	6	96	96	3
STR	24	0	3
SCL	24	0	3	96	96	0
STR	24	96	0
SI_	24	96	0	96	96	4
STR	24	192	4
SCR	24	192	4	96	96	7
STR	24	288	7
SXL	24	288	7	96	192	2
HLD	25	0	3	192
TAP	25	288	1
TAP	25	288	4
STR	26	0	2
SCL	26	0	2	96	96	7
TAP	26	0	4
TAP	26	144	6
TAP	26	192	6
TAP	26	288	4
TAP	26	288	5
TAP	26	336	4
TAP	26	336	5
TAP	27	48	2
TAP	27	48	3
STR	27	96	2
SCL	27	96	2	96	96	6
TAP	27	96	3
TAP	27	192	5
TAP	27	288	5
TAP	28	0	3
STR	28	0	5
SCR	28	0	5	96	96	0
TAP	28	144	1
TAP	28	192	1
TAP	28	288	2
TAP	28	288	3
TAP	28	336	2
TAP	28	336	3
TAP	29	48	4
TAP	29	48	5
TAP	29	96	4
STR	29	96	5
SCR	29	96	5	96	96	1
TAP	29	192	2
TAP	29	288	2
STR	30	0	2
SXL	30	0	2	96	96	4
TAP	30	0	3
TAP	30	144	7
TAP	30	192	7
TAP	30	288	0
TAP	30	288	6
TAP	31	0	4
STR	31	0	5
SXR	31	0	5	96	120	3
TAP	31	144	0
TAP	31	192	0
TAP	31	288	1
TAP	31	288	7
STR	32	0	2
SUL	32	0	2	96	120	4
TAP	32	0	3
TAP	32	144	7
TAP	32	192	7
TAP	32	288	6
TAP	32	288	7
TAP	32	336	6
TAP	32	336	7
TAP	33	48	4
TAP	33	48	5
TAP	33	96	4
TAP	33	96	5
TAP	33	192	3
TAP	33	192	6
TAP	33	288	2
STR	33	288	3
SI_	33	288	3	96	48	6
TAP	34	0	1
STR	34	96	4
SI_	34	96	4	96	48	1
TAP	34	96	5
TAP	34	192	6
TAP	34	288	2
STR	34	288	3
SCR	34	288	3	96	48	6
TAP	35	0	0
STR	35	96	4
SCL	35	96	4	96	48	1
TAP	35	96	5
TAP	35	192	7
TAP	35	288	0
TAP	35	288	7
TAP	36	0	2
STR	36	0	5
SI_	36	0	5	96	48	0
SI_	36	0	5	96	48	1
STR	36	192	2
SI_	36	192	2	96	48	6
SI_	36	192	2	96	48	7
STR	37	0	5
SCR	37	0	5	96	144	2
SUR	37	0	5	96	144	2
STR	38	0	3
SXR	38	0	3	96	192	0
STR	38	0	4
SXL	38	0	4	96	192	7
TAP	38	48	3
TAP	38	48	4
BRK	39	0	1
BST	39	0	6
SI_	39	0	6	96	48	3
STR	39	96	7
SI_	39	96	7	96	48	2
TAP	39	192	4
TAP	39	240	5
TAP	39	288	3
STR	39	288	6
SCR	39	288	6	96	120	3
TAP	40	240	1
STR	40	288	1
SI_	40	288	1	96	48	4
TAP	40	336	0
STR	41	0	0
SI_	41	0	0	96	48	5
STR	41	96	1
SCR	41	96	1	96	48	4
STR	41	192	0
SCL	41	192	0	96	48	5
STR	41	288	1
SXL	41	288	1	96	192	4
TAP	42	0	0
TAP	42	96	7
TAP	42	192	6
TAP	42	288	4
TAP	42	288	5
STR	43	0	2
SUR	43	0	2	96	48	7
STR	43	0	3
SCR	43	0	3	96	48	6
TAP	43	192	0
TAP	43	240	1
TAP	43	240	7
STR	43	288	2
SXR	43	288	2	96	96	0
STR	43	288	6
SXR	43	288	6	96	96	4
TAP	44	144	1
TAP	44	144	5
TAP	44	192	1
TAP	44	192	5
TAP	44	288	0
TAP	44	288	7
STR	45	0	1
SI_	45	0	1	96	48	4
TAP	45	48	0
TAP	45	96	0
STR	45	192	6
SI_	45	192	6	96	48	3
TAP	45	240	7
TAP	45	288	7
TAP	46	0	1
TAP	46	0	4
TAP	46	48	2
TAP	46	96	3
TAP	46	96	6
TAP	46	144	5
BRK	46	192	1
BRK	46	192	4
STR	47	0	1
SI_	47	0	1	96	48	4
TAP	47	0	6
STR	47	96	0
SI_	47	96	0	96	48	5
TAP	47	192	3
TAP	47	240	2
STR	47	288	1
SCL	47	288	1	96	120	4
TAP	47	288	4
TAP	48	240	6
STR	48	288	6
SI_	48	288	6	96	48	3
TAP	48	336	7
STR	49	0	7
SI_	49	0	7	96	48	2
STR	49	96	6
SCL	49	96	6	96	48	3
STR	49	192	7
SCR	49	192	7	96	48	2
STR	49	288	6
SXR	49	288	6	96	192	3
TAP	50	0	7
TAP	50	96	0
TAP	50	192	1
TAP	50	288	2
TAP	50	288	3
STR	51	0	4
SCL	51	0	4	96	48	1
STR	51	0	5
SUL	51	0	5	96	48	0
TAP	51	192	7
TAP	51	240	0
TAP	51	240	6
STR	51	288	1
SCR	51	288	1	96	96	4
STR	51	288	5
SUL	51	288	5	96	96	0
TAP	52	144	2
TAP	52	144	7
TAP	52	192	2
TAP	52	192	7
TAP	52	288	3
TAP	52	288	4
STR	53	0	6
SI_	53	0	6	96	48	3
TAP	53	48	7
TAP	53	96	7
STR	53	192	1
SI_	53	192	1	96	48	4
TAP	53	240	0
TAP	53	288	0
TAP	54	0	3
TAP	54	0	6
TAP	54	48	5
TAP	54	96	0
TAP	54	96	4
TAP	54	144	1
BRK	54	192	2
BRK	54	192	6
TAP	55	0	2
TAP	55	0	3
TAP	55	96	4
TAP	55	96	5
TAP	55	144	4
TAP	55	144	5
TAP	55	240	3
TAP	55	240	6
TAP	55	288	3
TAP	55	288	6
TAP	56	0	1
TAP	56	24	0
TAP	56	48	1
TAP	56	72	0
TAP	56	96	2
TAP	56	120	7
TAP	56	144	2
TAP	56	168	7
TAP	56	192	3
TAP	56	216	6
TAP	56	240	3
TAP	56	264	6
TAP	56	288	4
TAP	56	312	5
TAP	56	336	4
TAP	56	360	5
HLD	57	0	4	96
HLD	57	96	3	96
TAP	57	192	2
TAP	57	288	1
TAP	57	288	4
TAP	58	0	6
TAP	58	24	7
TAP	58	48	6
TAP	58	72	7
TAP	58	96	5
TAP	58	120	0
TAP	58	144	5
TAP	58	168	0
TAP	58	192	4
TAP	58	216	1
TAP	58	240	4
TAP	58	264	1
TAP	58	288	3
TAP	58	312	2
TAP	58	336	3
TAP	58	360	2
HLD	59	0	3	96
HLD	59	96	4	96
TAP	59	192	5
TAP	59	288	3
TAP	59	288	4
TAP	60	0	2
TAP	60	24	3
TAP	60	48	2
TAP	60	72	3
TAP	60	96	1
TAP	60	120	4
TAP	60	144	1
TAP	60	168	4
TAP	60	192	0
TAP	60	216	5
TAP	60	240	0
TAP	60	264	5
TAP	60	288	7
TAP	60	312	6
TAP	60	336	7
TAP	60	360	6
HLD	61	0	7	96
HLD	61	96	5	96
TAP	61	192	4
TAP	61	288	3
TAP	61	288	6
TAP	62	0	5
TAP	62	24	4
TAP	62	48	5
TAP	62	72	4
HLD	62	96	6	96
TAP	62	192	2
TAP	62	216	3
TAP	62	240	2
TAP	62	264	3
HLD	62	288	1	96
STR	63	0	4
SI_	63	0	4	96	48	7
STR	63	96	0
SSL	63	96	0	96	96	4
BRK	64	0	1
BST	64	0	6
SI_	64	0	6	96	48	3
STR	64	96	2
SI_	64	96	2	96	48	7
TAP	64	192	4
TAP	64	240	5
TAP	64	288	0
STR	64	288	6
SCL	64	288	6	96	144	0
TAP	65	240	1
STR	65	288	1
SUR	65	288	1	96	48	5
TAP	65	336	0
STR	66	0	0
SCL	66	0	0	96	48	4
STR	66	96	1
SUR	66	96	1	96	48	5
STR	66	192	0
SCL	66	192	0	96	48	4
STR	66	288	1
SXL	66	288	1	96	192	5
TAP	67	0	0
TAP	67	96	7
TAP	67	192	6
TAP	67	288	6
TAP	67	288	7
STR	68	0	4
SCL	68	0	4	96	48	1
STR	68	0	5
SUL	68	0	5	96	48	0
TAP	68	192	7
TAP	68	240	0
TAP	68	240	6
STR	68	288	1
SXL	68	288	1	96	96	3
STR	68	288	5
SXL	68	288	5	96	96	7
TAP	69	144	2
TAP	69	144	6
TAP	69	192	2
TAP	69	192	6
TAP	69	288	3
TAP	69	288	4
STR	70	0	2
SCL	70	0	2	96	48	7
TAP	70	48	3
TAP	70	96	3
STR	70	192	5
SCR	70	192	5	96	48	0
TAP	70	240	4
TAP	70	288	4
TAP	71	0	1
TAP	71	0	3
TAP	71	48	2
TAP	71	96	4
TAP	71	96	6
TAP	71	144	5
BRK	71	192	1
BRK	71	192	4
STR	72	0	1
SI_	72	0	1	96	48	4
TAP	72	0	6
STR	72	96	5
SI_	72	96	5	96	48	0
TAP	72	192	3
TAP	72	240	2
STR	72	288	1
SCR	72	288	1	96	144	7
TAP	72	288	7
TAP	73	240	6
STR	73	288	6
SUL	73	288	6	96	48	2
TAP	73	336	7
STR	74	0	7
SCR	74	0	7	96	48	3
STR	74	96	6
SUL	74	96	6	96	48	2
STR	74	192	7
SCR	74	192	7	96	48	3
STR	74	288	6
SXR	74	288	6	96	192	2
TAP	75	0	7
TAP	75	96	0
TAP	75	192	1
TAP	75	288	0
TAP	75	288	1
STR	76	0	2
SUR	76	0	2	96	48	7
STR	76	0	3
SCR	76	0	3	96	48	6
TAP	76	192	0
TAP	76	240	1
TAP	76	240	7
STR	76	288	2
SUR	76	288	2	96	96	7
STR	76	288	6
SCL	76	288	6	96	96	3
TAP	77	144	0
TAP	77	144	5
TAP	77	192	0
TAP	77	192	5
TAP	77	288	3
TAP	77	288	4
STR	78	0	5
SCR	78	0	5	96	48	0
TAP	78	48	4
TAP	78	96	4
STR	78	192	2
SCL	78	192	2	96	48	7
TAP	78	240	3
TAP	78	288	3
TAP	79	0	4
TAP	79	0	6
TAP	79	48	5
TAP	79	96	1
TAP	79	96	4
TAP	79	144	2
BRK	79	192	3
BRK	79	192	7
STR	80	0	6
SCL	80	0	6	96	48	3
TAP	80	96	7
STR	80	192	1
SCR	80	192	1	96	48	4
TAP	80	288	0
STR	81	0	6
SCL	81	0	6	96	48	3
TAP	81	96	7
TAP	81	192	0
TAP	81	288	1
STR	81	288	7
SUL	81	288	7	96	48	3
STR	82	0	1
SUR	82	0	1	96	48	5
STR	82	96	6
SUL	82	96	6	96	48	2
STR	82	192	0
SUR	82	192	0	96	48	4
STR	82	288	7
SCL	82	288	7	96	192	0
TAP	83	0	0
TAP	83	288	0
TAP	83	288	7
TAP	84	0	2
HLD	84	0	3	96
HLD	84	96	1	96
TAP	84	192	0
TAP	84	240	2
TAP	84	288	1
TAP	84	288	3
HLD	85	0	4	96
TAP	85	0	5
HLD	85	96	6	96
TAP	85	192	7
TAP	85	240	5
TAP	85	288	4
TAP	85	288	6
TAP	86	0	3
TAP	86	48	2
TAP	86	96	1
TAP	86	96	3
TAP	86	144	0
TAP	86	192	4
TAP	86	240	5
TAP	86	288	4
TAP	86	288	6
TAP	86	336	7
TAP	87	0	1
TAP	87	0	3
TAP	87	48	2
TAP	87	96	4
TAP	87	96	6
TAP	87	144	5
BST	87	192	2
SXL	87	192	2	96	192	3
SLL	87	192	2	96	192	3
BRK	87	192	3

T_REC_TAP	389
T_REC_BRK	15
T_REC_XTP	0
T_REC_HLD	26
T_REC_XHO	0
T_REC_STR	101
T_REC_BST	3
T_REC_XST	0
T_REC_TTP	0
T_REC_THO	0
T_REC_SLD	108
T_REC_ALL	642
T_NUM_TAP	490
T_NUM_BRK	18
T_NUM_HLD	26
T_NUM_SLD	108
T_NUM_ALL	642
T_JUDGE_TAP	508
T_JUDGE_HLD	54
T_JUDGE_SLD	108
T_JUDGE_ALL	670
TTM_EACHPAIRS	134
TTM_SCR_TAP	245000
TTM_SCR_BRK	46800
TTM_SCR_HLD	26000
TTM_SCR_SLD	162000
TTM_SCR_ALL	479800
TTM_SCR_S	463700
TTM_SCR_SS	478000
TTM_RAT_ACV	10037

