VERSION	0.00.00	1.03.00
FES_MODE	0
BPM_DEF	155.000	155.000	155.000	155.000
MET_DEF	4	4
RESOLUTION	384
CLK_DEF	384
COMPATIBLE_CODE	MA2

BPM	0	0	155.000

HLD	1	0	3	192
HLD	1	0	4	192
TAP	1	288	2
TAP	1	288	5
TAP	2	0	0
TAP	2	0	1
TAP	2	96	2
TAP	2	192	3
TAP	2	192	4
TAP	2	288	5
TAP	3	0	6
STR	3	0	7
SCR	3	0	7	96	96	2
TAP	3	288	3
TAP	3	288	4
TAP	4	0	4
TAP	4	0	5
TAP	4	96	5
TAP	4	96	7
TAP	4	192	2
TAP	4	192	3
TAP	4	288	0
TAP	4	288	2
STR	5	0	0
SCR	5	0	0	96	96	3
STR	5	0	7
SCL	5	0	7	96	96	4
TAP	5	288	2
TAP	5	288	5
TAP	6	0	6
TAP	6	0	7
TAP	6	96	5
TAP	6	192	3
TAP	6	192	4
TAP	6	288	2
HLD	7	0	0	96
HLD	7	0	1	96
HLD	7	192	6	96
HLD	7	192	7	96
TAP	8	0	2
TAP	8	96	2
TAP	8	96	3
TAP	8	192	5
TAP	8	288	4
TAP	8	288	5
TAP	9	0	1
TAP	9	96	0
TAP	9	96	1
BRK	9	192	2
BRK	9	192	7
HLD	10	0	2	288
TAP	10	96	3
TAP	10	192	4
TAP	10	288	3
HLD	11	0	5	288
TAP	11	96	4
TAP	11	192	3
TAP	11	288	4
HLD	12	0	2	288
TAP	12	96	3
TAP	12	192	5
TAP	12	288	3
HLD	13	0	5	288
TAP	13	96	4
TAP	13	192	2
TAP	13	288	4
HLD	14	0	2	288
TAP	14	96	1
TAP	14	192	0
TAP	14	288	7
HLD	15	0	5	288
TAP	15	96	6
TAP	15	192	7
TAP	15	288	0
STR	16	0	2
SUR	16	0	2	96	192	7
STR	16	0	3
SCR	16	0	3	96	192	6
TAP	17	0	6
TAP	17	0	7
TAP	17	96	0
TAP	17	96	5
TAP	17	192	2
TAP	17	240	3
TAP	17	288	2
HLD	18	0	5	288
TAP	18	96	4
TAP	18	192	2
TAP	18	288	4
HLD	19	0	2	288
TAP	19	96	3
TAP	19	192	5
TAP	19	288	3
HLD	20	0	6	288
TAP	20	96	5
TAP	20	192	3
TAP	20	288	5
HLD	21	0	1	288
TAP	21	96	2
TAP	21	192	4
TAP	21	288	2
TAP	22	0	6
TAP	22	96	4
TAP	22	192	3
TAP	22	288	0
TAP	22	288	1
TAP	23	0	1
TAP	23	96	3
TAP	23	192	4
TAP	23	288	6
TAP	23	288	7
HLD	24	0	0	288
HLD	24	0	7	288
TAP	25	0	1
TAP	25	0	6
TAP	25	96	2
STR	25	96	5
SCL	25	96	5	96	96	2
TAP	26	0	1
HLD	26	0	3	96
HLD	26	96	2	96
HLD	26	192	1	96
TAP	26	288	0
STR	26	336	0
SCR	26	336	0	96	144	5
TAP	27	288	6
TAP	27	288	7
HLD	28	0	4	96
TAP	28	0	6
HLD	28	96	5	96
HLD	28	192	6	96
TAP	28	288	7
STR	28	336	7
SCL	28	336	7	96	144	2
TAP	29	288	0
TAP	29	288	1
STR	30	0	0
SUR	30	0	0	96	144	5
STR	30	0	1
SUR	30	0	1	96	144	5
HLD	31	0	5	96
TAP	31	96	7
HLD	31	192	2	96
TAP	31	288	0
STR	32	0	0
SCR	32	0	0	96	120	3
STR	32	0	7
SCL	32	0	7	96	120	4
TAP	33	0	6
TAP	33	96	5
TAP	33	192	4
TAP	33	288	2
TAP	33	336	3
TAP	34	0	2
TAP	34	96	5
TAP	34	144	4
TAP	34	192	5
TAP	34	288	1
TAP	34	336	3
TAP	35	0	1
TAP	35	96	6
TAP	35	144	4
TAP	35	192	6
TAP	35	288	0
TAP	35	336	7
TAP	36	0	0
TAP	36	96	1
TAP	36	96	6
TAP	36	192	4
TAP	36	192	5
TAP	36	240	4
STR	36	240	5
SCR	36	240	5	96	240	2
SUR	36	240	5	96	240	2
TAP	38	0	0
STR	38	48	0
SF_	38	48	0	96	144	4
BRK	39	0	6
BRK	39	0	7
TAP	39	96	4
TAP	39	96	5
TAP	39	192	2
TAP	39	240	2
TAP	39	288	0
TAP	39	288	1
HLD	40	0	2	96
HLD	40	0	7	96
TAP	40	192	5
TAP	40	240	4
TAP	40	288	5
TAP	41	0	6
STR	41	0	7
SI_	41	0	7	96	48	3
STR	41	192	6
SI_	41	192	6	96	48	3
TAP	41	192	7
STR	42	0	6
SUR	42	0	6	96	120	3
STR	42	0	7
SCR	42	0	7	96	120	3
TAP	42	288	1
TAP	42	288	5
STR	43	0	2
SI_	43	0	2	96	48	7
STR	43	0	6
SI_	43	0	6	96	48	3
TAP	43	192	0
TAP	43	240	0
TAP	43	288	1
TAP	43	288	7
STR	44	0	0
SI_	44	0	0	96	48	3
STR	44	0	4
SI_	44	0	4	96	48	7
STR	44	192	2
SI_	44	192	2	96	48	5
STR	44	192	6
SI_	44	192	6	96	48	1
TAP	45	0	7
TAP	45	96	0
TAP	45	96	6
TAP	45	192	5
TAP	45	240	4
TAP	45	288	3
TAP	45	288	6
TAP	46	0	2
TAP	46	0	7
TAP	46	96	1
TAP	46	144	0
TAP	46	192	2
TAP	46	192	7
BRK	47	0	0
BRK	47	0	1
TAP	47	96	2
TAP	47	96	3
TAP	47	192	5
TAP	47	240	5
TAP	47	288	6
TAP	47	288	7
HLD	48	0	0	96
HLD	48	0	5	96
TAP	48	192	2
TAP	48	240	3
TAP	48	288	2
STR	49	0	0
SI_	49	0	0	96	48	4
TAP	49	0	1
TAP	49	192	0
STR	49	192	1
SI_	49	192	1	96	48	4
STR	50	0	0
SCL	50	0	0	96	120	4
STR	50	0	1
SV_	50	0	1	96	120	4
TAP	50	288	2
TAP	50	288	6
STR	51	0	1
SI_	51	0	1	96	48	4
STR	51	0	5
SI_	51	0	5	96	48	0
TAP	51	192	7
TAP	51	240	7
TAP	51	288	0
TAP	51	288	6
STR	52	0	3
SI_	52	0	3	96	48	0
STR	52	0	7
SI_	52	0	7	96	48	4
STR	52	192	1
SI_	52	192	1	96	48	6
STR	52	192	5
SI_	52	192	5	96	48	2
TAP	53	0	0
TAP	53	96	1
TAP	53	96	7
TAP	53	192	2
TAP	53	240	3
TAP	53	288	1
TAP	53	288	4
TAP	54	0	0
TAP	54	0	5
TAP	54	96	6
TAP	54	144	7
TAP	54	192	0
TAP	54	192	5
BRK	55	0	7
HLD	56	0	2	384
TAP	56	96	1
TAP	56	192	3
TAP	56	288	1
HLD	57	0	3	96
HLD	57	96	4	96
HLD	57	192	5	96
TAP	57	288	6
HLD	58	0	5	384
TAP	58	96	6
TAP	58	192	4
TAP	58	288	6
HLD	59	0	4	96
HLD	59	96	3	96
HLD	59	192	2	96
TAP	59	288	1
HLD	60	0	1	192
TAP	60	96	0
TAP	60	192	2
TAP	60	288	1
TAP	60	288	3
HLD	61	0	6	192
TAP	61	96	7
TAP	61	192	5
TAP	61	288	4
TAP	61	288	6
TAP	62	0	1
TAP	62	48	1
TAP	62	96	0
TAP	62	96	2
TAP	62	192	6
TAP	62	240	6
TAP	62	288	5
TAP	62	288	7
TAP	63	0	3
TAP	63	0	4
TAP	63	96	2
TAP	63	96	5
BRK	63	192	0
BRK	63	192	7
BRK	64	0	1
BRK	64	0	7
TAP	64	96	2
TAP	64	96	3
TAP	64	192	6
TAP	64	240	6
TAP	64	288	5
TAP	64	288	7
HLD	65	0	0	96
HLD	65	0	4	96
TAP	65	192	2
TAP	65	240	3
TAP	65	288	1
STR	66	0	0
SI_	66	0	0	96	48	4
STR	66	0	1
SI_	66	0	1	96	48	4
STR	66	192	0
SI_	66	192	0	96	48	4
STR	66	192	1
SI_	66	192	1	96	48	4
STR	67	0	0
SCL	67	0	0	96	120	4
STR	67	0	1
SUL	67	0	1	96	120	4
TAP	67	288	2
TAP	67	288	6
STR	68	0	1
SI_	68	0	1	96	48	4
STR	68	0	5
SI_	68	0	5	96	48	0
TAP	68	192	7
TAP	68	240	7
TAP	68	288	0
TAP	68	288	7
STR	69	0	3
SLL	69	0	3	96	96	6
STR	69	0	7
SLL	69	0	7	96	96	2
TAP	69	288	1
TAP	69	288	5
TAP	70	0	6
TAP	70	0	7
TAP	70	96	0
TAP	70	96	5
TAP	70	192	2
TAP	70	240	3
TAP	70	288	1
TAP	70	288	4
TAP	71	0	6
TAP	71	0	7
TAP	71	96	2
TAP	71	144	3
TAP	71	192	0
TAP	71	192	5
BRK	72	0	0
BRK	72	0	6
TAP	72	96	4
TAP	72	96	5
TAP	72	192	1
TAP	72	240	1
TAP	72	288	0
TAP	72	288	2
HLD	73	0	3	96
HLD	73	0	7	96
TAP	73	192	5
TAP	73	240	4
TAP	73	288	6
STR	74	0	6
SI_	74	0	6	96	48	3
STR	74	0	7
SI_	74	0	7	96	48	3
STR	74	192	6
SI_	74	192	6	96	48	3
STR	74	192	7
SI_	74	192	7	96	48	3
STR	75	0	6
SV_	75	0	6	96	120	3
STR	75	0	7
SCR	75	0	7	96	120	3
TAP	75	288	1
TAP	75	288	5
STR	76	0	2
SI_	76	0	2	96	48	7
STR	76	0	6
SI_	76	0	6	96	48	3
TAP	76	192	0
TAP	76	240	0
TAP	76	288	0
TAP	76	288	7
STR	77	0	0
SLR	77	0	0	96	96	5
STR	77	0	4
SLR	77	0	4	96	96	1
TAP	77	288	2
TAP	77	288	6
TAP	78	0	0
TAP	78	0	1
TAP	78	96	2
TAP	78	96	7
TAP	78	192	5
TAP	78	240	4
TAP	78	288	3
TAP	78	288	6
TAP	79	0	0
TAP	79	0	1
TAP	79	96	5
TAP	79	144	4
TAP	79	192	2
TAP	79	192	7
BRK	80	0	6
BST	80	0	7
SCR	80	0	7	96	48	2
STR	80	192	0
SCL	80	192	0	96	48	5
TAP	80	192	1
STR	81	0	6
SCL	81	0	6	96	96	3
STR	81	0	7
SCR	81	0	7	96	96	2
TAP	81	288	3
TAP	81	288	4
TAP	82	0	2
STR	82	0	3
SI_	82	0	3	96	48	0
STR	82	192	4
SI_	82	192	4	96	48	7
TAP	82	192	5
STR	83	0	3
SCL	83	0	3	96	72	0
STR	83	0	4
SCR	83	0	4	96	72	7
TAP	83	288	1
TAP	83	288	6
STR	84	0	0
SCL	84	0	0	96	48	5
TAP	84	0	1
TAP	84	192	6
STR	84	192	7
SCR	84	192	7	96	48	2
HLD	85	0	0	96
HLD	85	0	1	96
HLD	85	192	6	96
HLD	85	192	7	96
TAP	86	0	2
TAP	86	96	1
TAP	86	96	3
TAP	86	192	5
TAP	86	288	4
TAP	86	288	6
TAP	87	0	1
TAP	87	96	0
TAP	87	96	2
BRK	87	192	3
BRK	87	192	7

T_REC_TAP	288
T_REC_BRK	16
T_REC_XTP	0
T_REC_HLD	48
T_REC_XHO	0
T_REC_STR	63
T_REC_BST	1
T_REC_XST	0
T_REC_TTP	0
T_REC_THO	0
T_REC_SLD	65
T_REC_ALL	481
T_NUM_TAP	351
T_NUM_BRK	17
T_NUM_HLD	48
T_NUM_SLD	65
T_NUM_ALL	481
T_JUDGE_TAP	368
T_JUDGE_HLD	164
T_JUDGE_SLD	65
T_JUDGE_ALL	597
TTM_EACHPAIRS	126
TTM_SCR_TAP	175500
TTM_SCR_BRK	44200
TTM_SCR_HLD	48000
TTM_SCR_SLD	97500
TTM_SCR_ALL	365200
TTM_SCR_S	352600
TTM_SCR_SS	363500
TTM_RAT_ACV	10046

