VERSION	0.00.00	1.03.00
FES_MODE	0
BPM_DEF	155.000	155.000	155.000	155.000
MET_DEF	4	4
RESOLUTION	384
CLK_DEF	384
COMPATIBLE_CODE	MA2

BPM	0	0	155.000

TAP	2	0	5
TAP	2	96	5
TAP	2	192	4
TAP	2	192	5
TAP	3	0	2
TAP	3	96	2
TAP	3	192	2
TAP	3	192	3
TAP	4	0	4
TAP	4	96	4
TAP	4	192	3
TAP	4	192	4
STR	4	288	3
SI_	4	288	3	96	192	0
STR	4	288	4
SI_	4	288	4	96	192	7
TAP	6	0	1
TAP	6	96	1
TAP	6	192	0
TAP	6	192	1
TAP	7	0	6
TAP	7	96	6
TAP	7	192	6
TAP	7	192	7
TAP	8	0	0
TAP	8	96	0
TAP	8	192	7
TAP	8	288	7
TAP	9	0	0
TAP	9	96	7
TAP	9	192	1
TAP	9	192	6
TAP	10	0	5
TAP	10	96	5
TAP	10	192	4
TAP	11	0	2
TAP	11	96	2
TAP	11	192	3
TAP	12	0	5
TAP	12	96	5
TAP	12	192	4
TAP	13	0	3
TAP	13	96	4
TAP	13	192	3
TAP	13	192	4
TAP	14	0	1
TAP	14	96	1
TAP	14	192	0
TAP	15	0	6
TAP	15	96	6
TAP	15	192	7
TAP	16	0	0
TAP	16	96	0
TAP	16	192	7
TAP	16	288	7
HLD	17	0	0	96
HLD	17	0	7	96
TAP	17	192	1
TAP	17	192	6
TAP	18	0	2
TAP	18	96	2
TAP	18	192	3
TAP	18	288	3
TAP	19	0	2
TAP	19	96	3
TAP	19	192	2
TAP	19	192	3
TAP	20	0	5
TAP	20	96	5
TAP	20	192	4
TAP	20	288	4
TAP	21	0	5
TAP	21	96	4
TAP	21	192	4
TAP	21	192	5
TAP	22	0	6
TAP	22	96	6
TAP	22	192	6
TAP	22	192	7
TAP	23	0	1
TAP	23	96	1
TAP	23	192	0
TAP	23	192	1
TAP	24	0	7
TAP	24	96	7
TAP	24	192	0
TAP	24	288	0
STR	25	0	0
SI_	25	0	0	96	192	3
STR	25	0	7
SI_	25	0	7	96	192	4
HLD	26	0	5	192
TAP	26	192	4
TAP	27	0	3
TAP	27	96	3
TAP	27	192	3
TAP	27	192	4
HLD	28	0	2	192
TAP	28	192	3
TAP	29	0	4
TAP	29	96	4
TAP	29	192	3
TAP	29	192	4
HLD	30	0	6	192
TAP	30	192	7
TAP	31	0	0
TAP	31	96	0
TAP	31	192	0
TAP	31	192	7
HLD	32	0	0	192
HLD	32	0	7	192
TAP	33	0	0
TAP	33	0	7
TAP	33	96	0
TAP	33	96	7
TAP	33	192	1
TAP	33	192	6
TAP	34	0	2
TAP	34	96	2
TAP	34	192	1
TAP	34	192	3
TAP	35	0	5
TAP	35	96	5
TAP	35	192	4
TAP	35	192	6
TAP	36	0	1
TAP	36	96	1
TAP	36	192	0
TAP	36	192	2
TAP	37	0	6
TAP	37	96	6
TAP	37	192	5
TAP	37	192	7
HLD	38	0	0	96
HLD	38	0	7	96
BRK	38	192	1
BRK	38	192	6
TAP	39	0	2
TAP	39	96	2
TAP	39	96	3
TAP	39	192	5
TAP	39	288	4
TAP	39	288	5
TAP	40	0	3
TAP	40	96	3
TAP	40	96	4
TAP	40	192	2
TAP	40	192	5
TAP	41	0	0
TAP	41	0	6
TAP	41	96	0
TAP	41	96	6
TAP	41	192	1
TAP	41	192	7
TAP	41	288	1
STR	41	288	7
SCL	41	288	7	96	192	4
TAP	42	288	2
TAP	42	288	3
TAP	43	0	1
TAP	43	96	0
TAP	43	192	2
TAP	43	192	7
TAP	44	0	6
TAP	44	96	7
TAP	44	192	0
TAP	44	192	5
TAP	45	0	1
TAP	45	96	0
TAP	45	96	1
TAP	45	192	6
TAP	45	288	6
TAP	45	288	7
TAP	46	0	0
TAP	46	96	0
TAP	46	96	7
TAP	46	192	1
TAP	46	192	6
TAP	47	0	5
TAP	47	96	4
TAP	47	96	5
TAP	47	192	2
TAP	47	288	2
TAP	47	288	3
TAP	48	0	4
TAP	48	96	3
TAP	48	96	4
TAP	48	192	2
TAP	48	192	5
TAP	49	0	1
TAP	49	0	7
TAP	49	96	1
TAP	49	96	7
TAP	49	192	0
TAP	49	192	6
STR	49	288	0
SCR	49	288	0	96	192	3
TAP	49	288	6
TAP	50	288	4
TAP	50	288	5
TAP	51	0	6
TAP	51	96	7
TAP	51	192	0
TAP	51	192	5
TAP	52	0	1
TAP	52	96	0
TAP	52	192	2
TAP	52	192	7
TAP	53	0	6
TAP	53	96	6
TAP	53	96	7
TAP	53	192	1
TAP	53	288	0
TAP	53	288	1
TAP	54	0	7
TAP	54	96	0
TAP	54	96	7
BRK	54	192	1
BRK	54	192	6
STR	55	0	0
SCR	55	0	0	96	144	3
STR	55	0	7
SCL	55	0	7	96	144	4
TAP	56	0	2
TAP	56	96	3
TAP	56	192	4
TAP	56	288	5
TAP	57	0	4
TAP	57	0	5
TAP	57	96	3
TAP	57	96	4
TAP	57	192	2
TAP	57	192	3
TAP	58	0	5
TAP	58	96	4
TAP	58	192	3
TAP	58	288	2
TAP	59	0	2
TAP	59	0	3
TAP	59	96	3
TAP	59	96	4
TAP	59	192	2
TAP	59	192	5
TAP	60	0	1
TAP	60	96	0
TAP	60	192	7
TAP	60	288	6
TAP	61	0	6
TAP	61	0	7
TAP	61	96	0
TAP	61	96	7
TAP	61	192	0
TAP	61	192	1
TAP	62	0	6
TAP	62	96	7
TAP	62	192	0
TAP	62	288	1
TAP	63	0	0
TAP	63	0	1
TAP	63	96	0
TAP	63	96	7
TAP	63	192	1
TAP	63	192	6
TAP	64	0	2
TAP	64	96	1
TAP	64	96	3
TAP	64	192	5
TAP	64	288	4
TAP	64	288	6
TAP	65	0	3
TAP	65	96	2
TAP	65	96	4
TAP	65	192	1
TAP	65	192	5
HLD	66	0	6	96
TAP	66	96	7
HLD	66	192	1	96
STR	66	288	0
SCL	66	288	0	96	192	4
TAP	67	288	2
TAP	67	288	3
TAP	68	0	4
TAP	68	96	5
TAP	68	192	6
TAP	68	192	7
TAP	69	0	3
TAP	69	96	2
TAP	69	192	0
TAP	69	192	1
TAP	70	0	6
TAP	70	0	7
TAP	70	96	6
TAP	70	96	7
TAP	70	192	0
TAP	70	192	1
TAP	70	288	0
TAP	70	288	1
TAP	71	0	0
TAP	71	0	7
TAP	71	96	0
TAP	71	96	7
BRK	71	192	1
BRK	71	192	6
TAP	72	0	6
TAP	72	96	5
TAP	72	96	7
TAP	72	192	1
TAP	72	288	0
TAP	72	288	2
TAP	73	0	7
TAP	73	96	0
TAP	73	96	6
TAP	73	192	1
TAP	73	192	5
HLD	74	0	6	96
TAP	74	96	4
HLD	74	192	1	96
STR	74	288	3
SCR	74	288	3	96	192	7
TAP	75	288	0
TAP	76	0	1
TAP	76	96	2
TAP	76	96	3
TAP	76	192	1
TAP	76	192	4
TAP	77	0	6
TAP	77	96	4
TAP	77	96	5
TAP	77	192	3
TAP	77	192	6
TAP	78	0	2
TAP	78	0	3
TAP	78	96	1
TAP	78	192	4
TAP	78	192	5
TAP	78	288	6
TAP	79	0	3
TAP	79	0	4
TAP	79	96	2
TAP	79	96	5
BRK	79	192	0
BRK	79	192	7
TAP	80	0	2
TAP	80	96	3
TAP	80	192	4
TAP	80	192	5
TAP	80	288	4
TAP	80	288	5
TAP	81	0	6
TAP	81	96	7
TAP	81	192	0
TAP	81	192	5
TAP	82	0	6
TAP	82	0	7
TAP	82	96	6
TAP	82	96	7
TAP	82	192	0
TAP	82	192	1
STR	82	288	0
SI_	82	288	0	96	192	5
STR	82	288	1
SI_	82	288	1	96	192	4
TAP	83	288	3
TAP	83	288	6
TAP	84	0	5
TAP	84	96	4
TAP	84	192	2
TAP	84	192	3
TAP	84	288	2
TAP	84	288	3
TAP	85	0	1
TAP	85	96	0
TAP	85	192	2
TAP	85	192	7
TAP	86	0	6
TAP	86	0	7
TAP	86	96	6
TAP	86	96	7
TAP	86	192	0
TAP	86	192	1
TAP	86	288	0
TAP	86	288	1
TAP	87	0	0
TAP	87	0	7
TAP	87	96	1
TAP	87	96	6
BRK	87	192	2
BRK	87	192	5

T_REC_TAP	341
T_REC_BRK	10
T_REC_XTP	0
T_REC_HLD	13
T_REC_XHO	0
T_REC_STR	12
T_REC_BST	0
T_REC_XST	0
T_REC_TTP	0
T_REC_THO	0
T_REC_SLD	12
T_REC_ALL	388
T_NUM_TAP	353
T_NUM_BRK	10
T_NUM_HLD	13
T_NUM_SLD	12
T_NUM_ALL	388
T_JUDGE_TAP	363
T_JUDGE_HLD	36
T_JUDGE_SLD	12
T_JUDGE_ALL	411
TTM_EACHPAIRS	116
TTM_SCR_TAP	176500
TTM_SCR_BRK	26000
TTM_SCR_HLD	13000
TTM_SCR_SLD	18000
TTM_SCR_ALL	233500
TTM_SCR_S	225550
TTM_SCR_SS	232500
TTM_RAT_ACV	10043

