VERSION	0.00.00	1.03.00
FES_MODE	0
BPM_DEF	155.000	155.000	155.000	155.000
MET_DEF	4	4
RESOLUTION	384
CLK_DEF	384
COMPATIBLE_CODE	MA2

BPM	0	0	155.000

TAP	2	0	0
TAP	2	96	0
TAP	2	192	1
TAP	2	288	1
HLD	3	0	2	192
TAP	4	0	3
TAP	4	96	3
TAP	4	192	4
TAP	4	288	4
HLD	5	0	5	192
TAP	6	0	6
TAP	6	96	6
TAP	6	192	7
TAP	6	288	7
HLD	7	0	0	192
TAP	8	0	7
TAP	8	96	7
TAP	8	192	0
TAP	8	288	0
TAP	9	0	0
TAP	9	0	7
TAP	9	96	0
TAP	9	96	7
BRK	9	192	0
BRK	9	192	7
TAP	10	0	7
TAP	10	96	7
TAP	10	192	6
TAP	10	288	6
HLD	11	0	5	192
TAP	12	0	4
TAP	12	96	4
TAP	12	192	3
TAP	12	288	3
HLD	13	0	2	192
TAP	14	0	1
TAP	14	96	1
TAP	14	192	0
TAP	14	288	0
HLD	15	0	7	192
STR	16	0	0
SI_	16	0	0	96	288	4
TAP	18	0	4
TAP	18	96	4
TAP	18	192	3
TAP	18	288	3
HLD	19	0	2	192
TAP	20	0	1
TAP	20	96	1
TAP	20	192	0
TAP	20	288	0
HLD	21	0	7	192
TAP	22	0	6
TAP	22	96	6
TAP	22	192	5
TAP	22	288	5
HLD	23	0	4	192
STR	24	0	3
SI_	24	0	3	96	288	7
TAP	26	0	6
TAP	26	192	6
TAP	26	192	7
TAP	27	0	6
TAP	27	96	6
TAP	27	192	6
TAP	27	192	7
TAP	28	0	1
TAP	28	192	0
TAP	28	192	1
TAP	29	0	1
TAP	29	96	1
TAP	29	192	0
TAP	29	192	1
TAP	30	0	2
TAP	30	192	2
TAP	30	192	3
TAP	31	0	2
TAP	31	96	2
TAP	31	192	2
TAP	31	192	3
TAP	32	0	5
TAP	32	192	4
TAP	32	192	5
TAP	33	0	5
TAP	33	96	5
TAP	33	192	4
TAP	33	192	5
TAP	34	0	4
TAP	34	0	5
TAP	34	192	2
TAP	34	192	3
TAP	35	0	4
TAP	35	0	5
TAP	35	96	4
TAP	35	96	5
TAP	35	192	4
TAP	35	192	5
TAP	36	0	2
TAP	36	0	3
TAP	36	96	2
TAP	36	96	3
TAP	36	192	2
TAP	36	192	3
STR	37	0	3
SI_	37	0	3	96	288	0
STR	37	0	4
SI_	37	0	4	96	288	7
TAP	39	0	0
TAP	39	96	0
TAP	39	192	1
TAP	39	288	1
TAP	40	0	2
TAP	40	96	2
TAP	40	192	2
TAP	40	192	3
TAP	41	0	4
TAP	41	96	4
TAP	41	192	5
TAP	41	288	5
HLD	42	0	6	192
HLD	42	0	7	192
TAP	43	0	7
TAP	43	96	7
TAP	43	192	6
TAP	43	288	6
TAP	44	0	5
TAP	44	96	5
TAP	44	192	4
TAP	44	192	5
TAP	45	0	3
TAP	45	96	3
TAP	45	192	4
TAP	45	288	4
TAP	46	0	3
TAP	46	0	4
TAP	46	96	3
TAP	46	96	4
TAP	46	192	2
TAP	46	192	5
TAP	47	0	7
TAP	47	96	7
TAP	47	192	6
TAP	47	288	6
TAP	48	0	5
TAP	48	96	5
TAP	48	192	4
TAP	48	192	5
TAP	49	0	3
TAP	49	96	3
TAP	49	192	2
TAP	49	288	2
HLD	50	0	0	192
HLD	50	0	1	192
TAP	51	0	0
TAP	51	96	0
TAP	51	192	1
TAP	51	288	1
TAP	52	0	2
TAP	52	96	2
TAP	52	192	2
TAP	52	192	3
TAP	53	0	4
TAP	53	96	4
TAP	53	192	3
TAP	53	288	3
TAP	54	0	3
TAP	54	0	4
TAP	54	96	3
TAP	54	96	4
BRK	54	192	2
BRK	54	192	5
STR	56	0	1
SI_	56	0	1	96	288	4
STR	58	0	6
SI_	58	0	6	96	288	3
STR	60	0	0
SI_	60	0	0	96	288	4
STR	62	0	7
SI_	62	0	7	96	288	3
TAP	64	0	0
TAP	64	96	0
TAP	64	192	1
TAP	64	288	1
TAP	65	0	2
TAP	65	96	2
TAP	65	192	2
TAP	65	192	3
TAP	66	0	4
TAP	66	96	4
TAP	66	192	5
TAP	66	288	5
HLD	67	0	6	192
HLD	67	0	7	192
TAP	68	0	7
TAP	68	96	7
TAP	68	192	6
TAP	68	288	6
TAP	69	0	5
TAP	69	96	5
TAP	69	192	4
TAP	69	192	5
TAP	70	0	3
TAP	70	96	3
TAP	70	192	4
TAP	70	288	4
TAP	71	0	3
TAP	71	0	4
TAP	71	96	3
TAP	71	96	4
TAP	71	192	2
TAP	71	192	5
TAP	72	0	7
TAP	72	96	7
TAP	72	192	6
TAP	72	288	6
TAP	73	0	5
TAP	73	96	5
TAP	73	192	4
TAP	73	192	5
TAP	74	0	3
TAP	74	96	3
TAP	74	192	2
TAP	74	288	2
HLD	75	0	0	192
HLD	75	0	1	192
TAP	76	0	0
TAP	76	96	0
TAP	76	192	1
TAP	76	288	1
TAP	77	0	2
TAP	77	96	2
TAP	77	192	2
TAP	77	192	3
TAP	78	0	4
TAP	78	96	4
TAP	78	192	3
TAP	78	288	3
TAP	79	0	3
TAP	79	0	4
TAP	79	96	3
TAP	79	96	4
BRK	79	192	2
BRK	79	192	5
STR	80	0	3
SI_	80	0	3	96	288	0
STR	82	0	4
SI_	82	0	4	96	288	7
TAP	84	0	0
TAP	84	96	0
TAP	84	192	1
TAP	84	192	7
TAP	85	0	7
TAP	85	96	7
TAP	85	192	0
TAP	85	192	6
TAP	86	0	0
TAP	86	96	0
TAP	86	192	7
TAP	86	288	7
TAP	87	0	0
TAP	87	0	7
TAP	87	96	0
TAP	87	96	7
BRK	87	192	1
BRK	87	192	6

T_REC_TAP	220
T_REC_BRK	8
T_REC_XTP	0
T_REC_HLD	17
T_REC_XHO	0
T_REC_STR	10
T_REC_BST	0
T_REC_XST	0
T_REC_TTP	0
T_REC_THO	0
T_REC_SLD	10
T_REC_ALL	265
T_NUM_TAP	230
T_NUM_BRK	8
T_NUM_HLD	17
T_NUM_SLD	10
T_NUM_ALL	265
T_JUDGE_TAP	238
T_JUDGE_HLD	68
T_JUDGE_SLD	10
T_JUDGE_ALL	316
TTM_EACHPAIRS	49
TTM_SCR_TAP	115000
TTM_SCR_BRK	20800
TTM_SCR_HLD	17000
TTM_SCR_SLD	15000
TTM_SCR_ALL	167800
TTM_SCR_S	162000
TTM_SCR_SS	167000
TTM_RAT_ACV	10047

