VERSION	0.00.00	1.03.00
FES_MODE	0
BPM_DEF	168.000	168.000	168.000	168.000
MET_DEF	4	4
RESOLUTION	384
CLK_DEF	384
COMPATIBLE_CODE	MA2

BPM	0	0	168.000
MET	0	0	4	4
MET	50	0	4	2
MET	50	192	4	4

TAP	1	288	0
TAP	1	312	7
TAP	1	336	0
TAP	1	360	7
STR	2	0	0
SI_	2	0	0	96	48	4
TAP	2	48	7
TAP	2	96	6
STR	2	144	5
SI_	2	144	5	96	48	0
TAP	2	240	4
TAP	2	288	3
TAP	2	336	2
TAP	3	0	1
TAP	3	0	3
TAP	3	48	5
TAP	3	96	4
TAP	3	96	6
TAP	3	144	7
TAP	3	192	0
TAP	3	192	6
TAP	3	240	1
TAP	3	240	5
TAP	3	288	2
TAP	3	288	4
TAP	3	336	3
STR	4	0	3
SI_	4	0	3	96	48	7
TAP	4	48	4
TAP	4	96	5
STR	4	144	6
SI_	4	144	6	96	48	3
TAP	4	240	7
TAP	4	288	0
TAP	4	336	1
TAP	5	0	0
TAP	5	0	2
TAP	5	48	6
TAP	5	96	5
TAP	5	96	7
TAP	5	144	4
TAP	5	192	2
TAP	5	216	3
TAP	5	240	2
TAP	5	288	4
TAP	5	336	5
STR	6	0	6
SI_	6	0	6	96	48	2
TAP	6	48	7
TAP	6	96	0
STR	6	144	1
SI_	6	144	1	96	48	4
TAP	6	240	0
TAP	6	288	7
TAP	6	336	6
TAP	7	0	2
TAP	7	0	6
TAP	7	48	1
TAP	7	48	5
TAP	7	96	0
TAP	7	96	4
TAP	7	144	3
TAP	7	144	7
STR	7	192	3
SCR	7	192	3	96	48	6
STR	7	192	7
SCR	7	192	7	96	48	2
TAP	7	288	3
TAP	7	288	7
BRK	8	0	3
BRK	8	0	7
BRK	8	48	2
BRK	8	48	6
BRK	8	96	1
BRK	8	96	5
BRK	8	144	0
BRK	8	144	4
BRK	8	240	0
BRK	8	240	7
BRK	8	288	1
BRK	8	288	6
BRK	8	336	2
BRK	8	336	5
TAP	9	0	2
TAP	9	24	3
TAP	9	48	2
TAP	9	72	3
TAP	9	96	2
TAP	9	144	5
TAP	9	168	4
TAP	9	192	5
TAP	9	216	4
TAP	9	240	5
TAP	9	288	3
TAP	9	312	4
TAP	9	336	2
TAP	9	336	5
STR	10	0	3
SCL	10	0	3	96	48	0
TAP	10	48	4
TAP	10	96	5
STR	10	144	6
SCL	10	144	6	96	48	3
TAP	10	240	7
TAP	10	288	0
TAP	10	336	1
TAP	11	0	0
TAP	11	0	2
TAP	11	48	6
TAP	11	96	5
TAP	11	96	7
TAP	11	144	0
TAP	11	192	1
TAP	11	192	7
TAP	11	240	2
TAP	11	240	6
TAP	11	288	3
TAP	11	288	5
TAP	11	336	4
STR	12	0	4
SI_	12	0	4	96	48	0
TAP	12	48	3
TAP	12	96	2
STR	12	144	1
SI_	12	144	1	96	48	4
TAP	12	240	0
TAP	12	288	7
TAP	12	336	6
TAP	13	0	5
TAP	13	0	7
TAP	13	48	1
TAP	13	96	0
TAP	13	96	2
TAP	13	144	3
TAP	13	192	5
TAP	13	216	4
TAP	13	240	5
TAP	13	288	3
TAP	13	336	2
STR	14	0	1
SI_	14	0	1	96	48	5
TAP	14	48	0
TAP	14	96	7
STR	14	144	6
SI_	14	144	6	96	48	3
TAP	14	240	7
TAP	14	288	0
TAP	14	336	1
TAP	15	0	1
TAP	15	0	5
TAP	15	48	2
TAP	15	48	6
TAP	15	96	3
TAP	15	96	7
TAP	15	144	0
TAP	15	144	4
STR	15	192	0
SCL	15	192	0	96	48	5
STR	15	192	4
SCL	15	192	4	96	48	1
TAP	15	288	0
TAP	15	288	4
HLD	16	0	0	144
TAP	16	0	7
TAP	16	48	6
TAP	16	96	5
HLD	16	144	4	192
TAP	16	240	3
TAP	16	288	2
TAP	16	336	1
TAP	17	0	6
TAP	17	24	7
TAP	17	48	6
TAP	17	72	7
TAP	17	96	6
TAP	17	144	1
TAP	17	168	0
TAP	17	192	1
TAP	17	216	0
TAP	17	240	1
TAP	17	288	7
TAP	17	312	0
TAP	17	336	1
TAP	17	336	6
STR	18	0	1
SCR	18	0	1	96	48	4
TAP	18	48	0
TAP	18	96	7
STR	18	144	6
SUL	18	144	6	96	48	2
TAP	18	240	7
TAP	18	288	0
STR	19	0	2
SCL	19	0	2	96	48	7
TAP	19	48	3
TAP	19	96	4
STR	19	144	6
SUR	19	144	6	96	48	2
TAP	19	240	4
TAP	19	288	3
STR	20	0	7
SCL	20	0	7	96	48	4
TAP	20	48	0
TAP	20	96	1
STR	20	144	2
SUR	20	144	2	96	24	6
TAP	20	240	1
TAP	20	288	0
STR	21	0	0
SCR	21	0	0	96	48	3
TAP	21	48	7
TAP	21	96	6
STR	21	144	5
SUL	21	144	5	96	48	1
TAP	21	240	6
TAP	21	288	7
TAP	22	0	1
TAP	22	0	5
TAP	22	48	2
TAP	22	48	4
STR	22	96	3
SXL	22	96	3	96	96	3
SXR	22	96	3	96	96	3
TAP	22	144	3
STR	23	0	6
SI_	23	0	6	96	48	2
TAP	23	48	6
STR	23	96	7
SI_	23	96	7	96	48	3
TAP	23	144	7
STR	23	192	0
SI_	23	192	0	96	48	4
TAP	23	240	0
STR	23	288	1
SI_	23	288	1	96	48	5
TAP	23	336	1
TAP	24	0	6
TAP	24	48	6
STR	24	96	6
SSR	24	96	6	96	96	2
STR	24	96	7
SSL	24	96	7	96	96	3
TAP	24	144	6
TAP	24	144	7
TAP	25	0	5
TAP	25	24	4
TAP	25	48	5
TAP	25	72	4
TAP	25	96	5
TAP	25	144	3
TAP	25	168	4
TAP	25	192	3
TAP	25	216	4
TAP	25	240	3
TAP	25	288	5
TAP	25	312	4
TAP	25	336	3
TAP	25	336	6
STR	26	0	6
SCL	26	0	6	96	48	3
TAP	26	48	7
TAP	26	96	0
STR	26	144	1
SUR	26	144	1	96	48	5
TAP	26	240	0
TAP	26	288	7
STR	27	0	5
SCR	27	0	5	96	48	0
TAP	27	48	4
TAP	27	96	3
STR	27	144	1
SUL	27	144	1	96	48	5
TAP	27	240	3
TAP	27	288	4
STR	28	0	0
SCR	28	0	0	96	48	3
TAP	28	48	7
TAP	28	96	6
STR	28	144	5
SUL	28	144	5	96	24	1
TAP	28	240	6
TAP	28	288	7
STR	29	0	7
SCL	29	0	7	96	48	4
TAP	29	48	0
TAP	29	96	1
STR	29	144	2
SUR	29	144	2	96	48	6
TAP	29	240	1
TAP	29	288	0
TAP	30	0	4
TAP	30	0	5
TAP	30	48	4
TAP	30	48	5
STR	30	96	3
SXR	30	96	3	96	144	5
STR	30	96	6
SXL	30	96	6	96	144	4
TAP	30	144	3
TAP	30	144	6
STR	31	0	1
SI_	31	0	1	96	48	5
TAP	31	48	1
STR	31	96	0
SI_	31	96	0	96	48	4
TAP	31	144	0
STR	31	192	7
SI_	31	192	7	96	48	3
TAP	31	240	7
STR	31	288	6
SI_	31	288	6	96	48	2
TAP	31	336	6
TAP	32	0	1
TAP	32	48	1
STR	32	96	0
SSR	32	96	0	96	96	4
STR	32	96	1
SSL	32	96	1	96	96	5
TAP	32	144	0
TAP	32	144	1
TAP	33	0	2
TAP	33	24	3
TAP	33	48	2
TAP	33	72	3
TAP	33	96	2
TAP	33	144	4
TAP	33	168	3
TAP	33	192	4
TAP	33	216	3
TAP	33	240	4
TAP	33	288	2
TAP	33	312	3
TAP	33	336	1
TAP	33	336	4
STR	34	0	1
SXL	34	0	1	96	192	4
TAP	34	96	7
TAP	34	144	7
TAP	34	240	6
TAP	34	288	6
STR	35	0	6
SXR	35	0	6	96	192	3
TAP	35	96	0
TAP	35	144	0
TAP	35	240	1
STR	35	288	1
SI_	35	288	1	96	48	5
BST	36	0	6
SI_	36	0	6	96	48	2
BST	36	144	4
SI_	36	144	4	96	48	0
BRK	36	288	6
TAP	37	0	5
TAP	37	96	5
TAP	37	168	4
TAP	37	192	5
TAP	37	240	3
TAP	37	288	2
TAP	37	336	1
STR	38	0	0
SI_	38	0	0	96	48	3
TAP	38	96	0
STR	38	144	6
SI_	38	144	6	96	48	3
TAP	38	240	6
TAP	38	288	7
TAP	38	312	0
TAP	38	336	1
TAP	38	360	2
STR	39	0	3
SI_	39	0	3	96	48	0
TAP	39	96	3
STR	39	144	5
SI_	39	144	5	96	48	0
TAP	39	240	5
TAP	39	288	4
TAP	39	312	3
TAP	39	336	2
TAP	39	360	1
STR	40	0	0
SI_	40	0	0	96	48	3
TAP	40	96	0
STR	40	144	6
SI_	40	144	6	96	48	3
TAP	40	240	6
TAP	40	288	7
TAP	40	312	0
TAP	40	336	1
TAP	40	360	2
BRK	41	0	3
BRK	41	0	7
TAP	41	96	6
TAP	41	96	7
BRK	41	144	1
BRK	41	144	5
TAP	41	240	0
TAP	41	240	1
BRK	41	288	2
BRK	41	288	6
STR	42	0	3
SI_	42	0	3	96	48	0
TAP	42	96	3
STR	42	144	5
SI_	42	144	5	96	48	0
TAP	42	240	5
TAP	42	288	4
TAP	42	312	3
TAP	42	336	2
TAP	42	360	1
STR	43	0	0
SI_	43	0	0	96	48	3
TAP	43	96	0
STR	43	144	6
SI_	43	144	6	96	48	3
TAP	43	240	6
STR	43	288	7
SI_	43	288	7	96	48	4
BST	44	0	5
SI_	44	0	5	96	48	1
BST	44	144	3
SCL	44	144	3	96	264	4
BRK	44	288	7
TAP	45	288	1
TAP	45	288	6
STR	46	0	7
SI_	46	0	7	96	48	4
TAP	46	96	7
STR	46	144	1
SI_	46	144	1	96	48	4
TAP	46	240	1
TAP	46	288	0
TAP	46	312	7
TAP	46	336	6
TAP	46	360	5
STR	47	0	4
SI_	47	0	4	96	48	7
TAP	47	96	4
STR	47	144	2
SI_	47	144	2	96	48	7
TAP	47	240	2
TAP	47	288	3
TAP	47	312	4
TAP	47	336	5
TAP	47	360	6
STR	48	0	7
SI_	48	0	7	96	48	3
TAP	48	96	7
STR	48	144	1
SI_	48	144	1	96	48	4
TAP	48	240	1
TAP	48	288	0
TAP	48	312	7
TAP	48	336	6
TAP	48	360	5
BRK	49	0	0
BRK	49	0	4
TAP	49	96	0
TAP	49	96	1
BRK	49	144	2
BRK	49	144	6
TAP	49	240	6
TAP	49	240	7
BRK	49	288	1
BRK	49	288	5
TAP	50	0	0
TAP	50	12	1
TAP	50	24	2
TAP	50	36	3
TAP	50	48	4
TAP	50	60	5
TAP	50	72	6
TAP	50	84	7
TAP	50	96	0
TAP	50	108	1
TAP	50	120	2
TAP	50	132	3
TAP	50	144	4
TAP	50	156	5
TAP	50	168	6
TAP	50	180	7
STR	50	192	0
SLR	50	192	0	96	120	4
TAP	50	288	4
TAP	51	0	6
STR	51	96	0
SI_	51	96	0	96	48	4
TAP	51	144	7
TAP	51	192	0
STR	51	192	6
SLL	51	192	6	96	120	2
TAP	51	288	2
TAP	52	0	0
STR	52	96	6
SI_	52	96	6	96	48	3
TAP	52	144	7
STR	52	192	0
SV_	52	192	0	96	96	2
TAP	52	192	6
TAP	52	288	2
TAP	53	0	4
TAP	53	96	6
TAP	53	144	7
TAP	53	192	0
HLD	53	192	4	96
TAP	53	288	2
STR	54	0	0
SI_	54	0	0	96	48	4
STR	54	0	6
SI_	54	0	6	96	48	2
TAP	54	96	0
TAP	54	96	6
STR	54	192	0
SI_	54	192	0	96	48	3
TAP	54	288	0
STR	54	288	5
SI_	54	288	5	96	48	3
TAP	55	0	5
STR	55	0	7
SUR	55	0	7	96	48	3
TAP	55	96	7
TAP	55	144	6
STR	55	192	5
SI_	55	192	5	96	48	0
STR	55	288	2
SI_	55	288	2	96	48	0
TAP	55	288	5
TAP	56	0	2
STR	56	0	4
SUR	56	0	4	96	48	0
TAP	56	96	4
TAP	56	144	3
STR	56	192	3
SUL	56	192	3	96	48	7
SUR	56	192	3	96	48	7
STR	56	288	3
SCL	56	288	3	96	48	0
SCR	56	288	3	96	48	6
STR	57	0	3
SXL	57	0	3	96	48	5
SXR	57	0	3	96	48	1
TAP	57	96	3
TAP	57	192	4
TAP	57	216	3
TAP	57	240	4
TAP	57	264	3
TAP	57	288	4
TAP	57	336	2
TAP	57	360	5
TAP	58	0	2
TAP	58	24	5
TAP	58	48	2
TAP	58	96	4
TAP	58	120	3
TAP	58	144	2
TAP	58	144	5
STR	58	192	7
SLL	58	192	7	96	120	3
TAP	58	288	3
TAP	59	0	1
STR	59	96	7
SI_	59	96	7	96	48	3
TAP	59	144	0
STR	59	192	1
SLR	59	192	1	96	120	5
TAP	59	192	7
TAP	59	288	5
TAP	60	0	7
STR	60	96	1
SI_	60	96	1	96	48	4
TAP	60	144	0
TAP	60	192	1
STR	60	192	7
SV_	60	192	7	96	96	5
TAP	60	288	5
TAP	61	0	3
TAP	61	96	1
TAP	61	144	0
HLD	61	192	3	96
TAP	61	192	7
TAP	61	288	5
STR	62	0	1
SI_	62	0	1	96	48	5
STR	62	0	7
SI_	62	0	7	96	48	3
TAP	62	96	1
TAP	62	96	7
STR	62	192	7
SI_	62	192	7	96	48	4
STR	62	288	2
SI_	62	288	2	96	48	4
TAP	62	288	7
STR	63	0	0
SUL	63	0	0	96	48	4
TAP	63	0	2
TAP	63	96	0
TAP	63	144	1
STR	63	192	2
SI_	63	192	2	96	48	7
TAP	63	288	2
STR	63	288	5
SI_	63	288	5	96	48	7
STR	64	0	3
SI_	64	0	3	96	48	7
TAP	64	0	5
TAP	64	96	3
STR	64	96	4
SCR	64	96	4	96	192	3
TAP	64	144	4
TAP	65	96	1
TAP	65	96	6
TAP	65	192	3
TAP	65	216	4
TAP	65	240	3
TAP	65	264	4
TAP	65	288	3
TAP	65	336	5
TAP	65	360	2
TAP	66	0	5
TAP	66	24	2
TAP	66	48	5
TAP	66	96	3
TAP	66	120	4
TAP	66	144	2
TAP	66	144	5
TAP	66	192	1
TAP	66	216	0
TAP	66	240	1
TAP	66	288	6
TAP	66	312	7
TAP	66	336	6
TAP	67	0	1
TAP	67	24	0
TAP	67	48	1
TAP	67	72	7
TAP	67	96	1
TAP	67	120	6
TAP	67	144	1
TAP	67	168	5
TAP	67	192	2
TAP	67	216	3
TAP	67	240	2
TAP	67	288	5
TAP	67	312	4
TAP	67	336	5
TAP	68	0	1
TAP	68	24	0
TAP	68	48	2
TAP	68	72	7
TAP	68	96	3
TAP	68	144	0
TAP	68	144	7
TAP	68	192	6
TAP	68	216	7
TAP	68	240	5
TAP	68	288	1
TAP	68	312	0
TAP	68	336	2
TAP	69	0	6
TAP	69	24	7
TAP	69	48	6
TAP	69	72	0
TAP	69	96	6
TAP	69	120	1
TAP	69	144	6
TAP	69	168	2
TAP	69	192	5
TAP	69	216	4
TAP	69	240	6
TAP	69	288	2
TAP	69	312	3
TAP	69	336	1
TAP	70	0	6
TAP	70	24	7
TAP	70	48	5
TAP	70	72	0
TAP	70	96	4
TAP	70	144	0
TAP	70	144	7
STR	70	192	1
SCR	70	192	1	96	96	4
STR	70	288	4
SV_	70	288	4	96	96	1
STR	71	0	1
SCR	71	0	1	96	96	4
TAP	71	96	7
TAP	71	144	6
STR	71	192	5
SCR	71	192	5	96	96	0
STR	71	288	0
SV_	71	288	0	96	96	5
STR	72	0	5
SCR	72	0	5	96	96	0
TAP	72	96	1
TAP	72	144	2
STR	72	192	3
SCR	72	192	3	96	96	7
STR	72	288	7
SCR	72	288	7	96	96	3
STR	73	0	3
SCR	73	0	3	96	144	7
TAP	73	96	7
STR	73	144	7
SXL	73	144	7	96	168	3
SXR	73	144	7	96	168	3
TAP	74	96	1
TAP	74	96	6
TAP	74	192	6
TAP	74	216	7
TAP	74	240	6
TAP	74	288	1
TAP	74	312	0
TAP	74	336	1
TAP	75	0	5
TAP	75	24	4
TAP	75	48	5
TAP	75	72	3
TAP	75	96	5
TAP	75	120	2
TAP	75	144	5
TAP	75	168	1
TAP	75	192	5
TAP	75	216	4
TAP	75	240	5
TAP	75	288	2
TAP	75	312	3
TAP	75	336	2
TAP	76	0	5
TAP	76	24	4
TAP	76	48	6
TAP	76	72	3
TAP	76	96	7
TAP	76	144	0
TAP	76	144	1
TAP	76	192	1
TAP	76	216	0
TAP	76	240	2
TAP	76	288	6
TAP	76	312	7
TAP	76	336	5
TAP	77	0	2
TAP	77	24	3
TAP	77	48	2
TAP	77	72	4
TAP	77	96	2
TAP	77	120	5
TAP	77	144	2
TAP	77	168	6
TAP	77	192	2
TAP	77	216	3
TAP	77	240	1
TAP	77	288	5
TAP	77	312	4
TAP	77	336	6
TAP	78	0	2
TAP	78	24	3
TAP	78	48	1
TAP	78	72	4
TAP	78	96	0
TAP	78	144	6
TAP	78	144	7
STR	78	192	6
SCL	78	192	6	96	96	3
STR	78	288	3
SV_	78	288	3	96	96	6
STR	79	0	6
SCL	79	0	6	96	96	3
TAP	79	96	0
TAP	79	144	1
STR	79	192	2
SCL	79	192	2	96	96	7
STR	79	288	7
SV_	79	288	7	96	96	2
STR	80	0	2
SCL	80	0	2	96	144	6
TAP	80	96	6
STR	80	144	6
SCL	80	144	6	96	168	0
SUL	80	144	6	96	168	7
TAP	81	96	0
TAP	81	96	7
TAP	81	192	2
TAP	81	216	3
TAP	81	240	2
TAP	81	264	4
TAP	81	288	2
TAP	81	336	5
TAP	81	360	4
TAP	82	0	5
TAP	82	24	3
TAP	82	48	5
TAP	82	96	2
TAP	82	120	4
TAP	82	144	6
BRK	82	168	0
TAP	83	0	6
TAP	83	12	5
TAP	83	24	4
TAP	83	36	3
TAP	83	48	2
TAP	83	60	1
TAP	83	72	0
TAP	83	84	7
TAP	83	96	6
TAP	83	108	5
TAP	83	120	4
TAP	83	132	3
TAP	83	144	2
TAP	83	156	1
TAP	83	168	0
TAP	83	180	7
STR	83	192	6
SCL	83	192	6	96	48	3
TAP	83	240	7
TAP	83	288	0
STR	83	336	1
SUR	83	336	1	96	48	5
TAP	84	48	0
TAP	84	96	7
STR	84	192	5
SCR	84	192	5	96	48	0
TAP	84	240	4
TAP	84	288	3
STR	84	336	1
SUL	84	336	1	96	48	5
TAP	85	48	3
TAP	85	96	4
STR	85	192	0
SCR	85	192	0	96	48	3
TAP	85	240	7
TAP	85	288	6
STR	85	336	5
SUL	85	336	5	96	48	1
TAP	86	48	6
TAP	86	96	7
STR	86	192	7
SCL	86	192	7	96	48	4
TAP	86	240	0
TAP	86	288	1
STR	86	336	2
SUR	86	336	2	96	48	6
TAP	87	48	1
TAP	87	96	0
TAP	87	192	6
TAP	87	216	7
TAP	87	240	6
TAP	87	264	0
TAP	87	288	6
TAP	87	336	1
TAP	87	360	0
TAP	88	0	1
TAP	88	24	7
TAP	88	48	1
TAP	88	96	7
TAP	88	120	6
TAP	88	144	5
TAP	88	168	4
TAP	88	192	2
TAP	88	216	3
TAP	88	240	2
TAP	88	264	4
TAP	88	288	2
TAP	88	336	5
TAP	88	360	4
TAP	89	0	5
TAP	89	24	3
TAP	89	48	5
TAP	89	96	3
TAP	89	120	2
TAP	89	144	1
TAP	89	168	0
TAP	89	192	6
TAP	89	216	7
TAP	89	240	5
TAP	89	264	7
TAP	89	288	6
TAP	89	336	1
TAP	89	360	0
TAP	90	0	2
TAP	90	24	0
TAP	90	48	1
TAP	90	96	7
TAP	90	120	0
TAP	90	144	6
TAP	90	168	1
TAP	90	192	5
TAP	90	216	2
TAP	90	240	4
TAP	90	264	3
STR	90	288	4
SCR	90	288	4	96	144	3
TAP	90	336	4

T_REC_TAP	598
T_REC_BRK	29
T_REC_XTP	0
T_REC_HLD	4
T_REC_XHO	0
T_REC_STR	123
T_REC_BST	4
T_REC_XST	0
T_REC_TTP	0
T_REC_THO	0
T_REC_SLD	133
T_REC_ALL	891
T_NUM_TAP	721
T_NUM_BRK	33
T_NUM_HLD	4
T_NUM_SLD	133
T_NUM_ALL	891
T_JUDGE_TAP	754
T_JUDGE_HLD	11
T_JUDGE_SLD	133
T_JUDGE_ALL	898
TTM_EACHPAIRS	87
TTM_SCR_TAP	360500
TTM_SCR_BRK	85800
TTM_SCR_HLD	4000
TTM_SCR_SLD	199500
TTM_SCR_ALL	649800
TTM_SCR_S	627150
TTM_SCR_SS	646500
TTM_RAT_ACV	10051

