VERSION	0.00.00	1.03.00
FES_MODE	0
BPM_DEF	168.000	168.000	168.000	168.000
MET_DEF	4	4
RESOLUTION	384
CLK_DEF	384
COMPATIBLE_CODE	MA2

BPM	0	0	168.000
MET	0	0	4	4
MET	50	0	4	2
MET	50	192	4	4

TAP	2	0	1
TAP	2	96	2
TAP	2	96	3
TAP	2	192	6
TAP	2	288	4
TAP	2	288	5
TAP	3	0	0
TAP	3	96	2
TAP	3	96	4
TAP	3	192	7
TAP	3	288	3
TAP	3	288	5
TAP	4	0	0
TAP	4	96	4
TAP	4	96	5
TAP	4	192	7
TAP	4	288	2
TAP	4	288	3
TAP	5	0	6
TAP	5	0	7
TAP	5	96	0
TAP	5	96	1
TAP	5	192	4
TAP	5	192	6
TAP	5	288	1
TAP	5	288	3
HLD	6	0	5	96
TAP	6	96	4
HLD	6	192	2	96
TAP	6	288	3
HLD	7	0	6	96
TAP	7	96	7
TAP	7	192	0
TAP	7	192	1
TAP	7	288	2
TAP	7	288	7
HLD	8	0	6	96
HLD	8	96	5	96
TAP	8	192	4
STR	8	288	2
SCL	8	288	2	96	192	5
STR	8	288	3
SUL	8	288	3	96	192	4
TAP	10	0	6
TAP	10	96	4
TAP	10	96	5
TAP	10	192	1
TAP	10	288	2
TAP	10	288	3
TAP	11	0	7
TAP	11	96	3
TAP	11	96	5
TAP	11	192	0
TAP	11	288	2
TAP	11	288	4
TAP	12	0	7
TAP	12	96	2
TAP	12	96	3
TAP	12	192	0
TAP	12	288	4
TAP	12	288	5
TAP	13	0	0
TAP	13	0	1
TAP	13	96	6
TAP	13	96	7
TAP	13	192	1
TAP	13	192	3
BRK	13	288	5
HLD	14	0	2	96
TAP	14	96	3
HLD	14	192	5	96
TAP	14	288	4
HLD	15	0	1	96
TAP	15	96	0
TAP	15	192	6
TAP	15	192	7
TAP	15	288	0
TAP	15	288	5
HLD	16	0	1	96
HLD	16	96	2	96
TAP	16	192	3
STR	16	288	4
SUR	16	288	4	96	192	3
STR	16	288	5
SCR	16	288	5	96	192	2
HLD	18	0	5	240
TAP	18	96	4
HLD	18	144	4	96
TAP	18	288	3
TAP	18	288	6
HLD	19	0	2	240
TAP	19	96	3
HLD	19	144	3	96
TAP	19	288	1
TAP	19	288	4
HLD	20	0	6	240
TAP	20	96	7
HLD	20	144	7	96
TAP	20	288	0
TAP	20	288	5
HLD	21	0	1	240
TAP	21	96	0
HLD	21	144	0	96
TAP	21	288	2
TAP	21	288	7
HLD	22	0	7	240
TAP	22	96	0
HLD	22	144	0	96
TAP	22	288	1
TAP	22	288	6
TAP	23	0	2
TAP	23	96	1
TAP	23	96	3
TAP	23	192	5
TAP	23	288	4
TAP	23	288	6
HLD	24	0	1	240
TAP	24	96	3
HLD	24	144	3	96
TAP	24	288	0
TAP	24	288	4
HLD	25	0	6	240
TAP	25	96	4
HLD	25	144	4	96
TAP	25	288	3
TAP	25	288	7
HLD	26	0	2	96
TAP	26	96	0
STR	26	144	0
SI_	26	144	0	96	48	4
HLD	27	0	5	96
TAP	27	96	7
STR	27	144	7
SI_	27	144	7	96	48	3
HLD	28	0	1	96
TAP	28	96	2
STR	28	144	2
SI_	28	144	2	96	48	5
HLD	29	0	6	96
TAP	29	96	5
STR	29	144	5
SI_	29	144	5	96	48	2
HLD	30	0	3	96
TAP	30	96	2
STR	30	144	2
SCL	30	144	2	96	48	7
TAP	31	0	4
TAP	31	0	5
TAP	31	96	2
TAP	31	96	7
TAP	31	192	2
TAP	31	192	3
TAP	31	288	0
TAP	31	288	5
HLD	32	0	4	96
TAP	32	96	5
STR	32	144	5
SCR	32	144	5	96	48	0
STR	33	0	3
SUR	33	0	3	96	192	0
STR	33	0	4
SUL	33	0	4	96	192	7
HLD	34	0	3	288
STR	34	0	4
SUR	34	0	4	96	192	2
STR	35	0	3
SUL	35	0	3	96	192	5
HLD	35	0	4	288
TAP	36	0	1
TAP	36	0	3
TAP	36	144	4
TAP	36	144	6
BST	36	288	0
SI_	36	288	0	96	48	3
BST	36	288	7
SI_	36	288	7	96	48	4
TAP	37	192	1
TAP	37	192	4
TAP	37	288	3
TAP	37	288	6
HLD	38	0	2	96
TAP	38	0	4
HLD	38	96	1	96
TAP	38	192	0
TAP	38	288	4
TAP	38	288	6
TAP	39	0	3
HLD	39	0	5	96
HLD	39	96	6	96
TAP	39	192	7
TAP	39	288	1
TAP	39	288	3
TAP	40	0	2
TAP	40	96	1
TAP	40	96	7
TAP	40	192	5
TAP	40	288	0
TAP	40	288	6
TAP	41	0	5
TAP	41	0	6
TAP	41	144	1
TAP	41	144	2
BRK	41	288	1
BRK	41	288	6
STR	42	0	0
SUR	42	0	0	96	192	6
HLD	42	0	7	288
HLD	43	0	0	288
STR	43	0	7
SUL	43	0	7	96	192	1
TAP	44	0	4
TAP	44	0	6
TAP	44	144	1
TAP	44	144	3
BST	44	288	0
SI_	44	288	0	96	48	4
BST	44	288	7
SI_	44	288	7	96	48	3
TAP	45	192	3
TAP	45	192	6
TAP	45	288	1
TAP	45	288	4
HLD	46	0	6	96
HLD	46	96	5	96
STR	46	192	4
SI_	46	192	4	96	48	7
HLD	47	0	1	96
HLD	47	96	2	96
STR	47	192	3
SI_	47	192	3	96	48	0
STR	48	0	7
SSR	48	0	7	96	192	3
TAP	49	0	1
TAP	49	0	2
TAP	49	144	5
TAP	49	144	6
BRK	49	288	0
BRK	49	288	7
STR	50	192	4
SI_	50	192	4	96	48	2
STR	50	192	5
SI_	50	192	5	96	48	0
TAP	51	0	1
TAP	51	0	7
TAP	51	96	2
TAP	51	96	3
HLD	51	192	6	96
HLD	51	288	5	96
TAP	52	0	4
TAP	52	96	1
TAP	52	96	7
STR	52	192	2
SI_	52	192	2	96	48	7
STR	52	192	3
SI_	52	192	3	96	48	5
TAP	53	0	0
TAP	53	0	6
TAP	53	96	4
TAP	53	96	5
HLD	53	192	1	96
HLD	53	288	2	96
TAP	54	0	3
TAP	54	96	0
TAP	54	96	6
STR	54	192	4
SCL	54	192	4	96	48	1
STR	54	192	5
SUL	54	192	5	96	48	0
TAP	55	0	7
TAP	55	96	5
TAP	55	96	7
STR	55	192	2
SUR	55	192	2	96	48	7
STR	55	192	3
SCR	55	192	3	96	48	6
TAP	56	0	0
TAP	56	96	0
TAP	56	96	2
STR	56	192	3
SCL	56	192	3	96	48	0
STR	56	192	4
SCR	56	192	4	96	48	7
TAP	57	0	1
TAP	57	0	6
TAP	57	96	1
TAP	57	96	6
TAP	57	192	3
TAP	57	192	4
TAP	57	288	2
TAP	57	288	5
TAP	58	0	0
TAP	58	48	7
TAP	58	96	1
TAP	58	96	6
STR	58	192	2
SI_	58	192	2	96	48	0
STR	58	192	3
SI_	58	192	3	96	48	6
TAP	59	0	5
TAP	59	0	7
TAP	59	96	3
TAP	59	96	4
TAP	59	192	0
HLD	59	192	1	96
HLD	59	288	2	96
TAP	60	0	3
TAP	60	96	0
TAP	60	96	6
STR	60	192	4
SI_	60	192	4	96	48	1
STR	60	192	5
SI_	60	192	5	96	48	7
TAP	61	0	0
TAP	61	0	2
TAP	61	96	3
TAP	61	96	4
HLD	61	192	6	96
TAP	61	192	7
HLD	61	288	5	96
TAP	62	0	4
TAP	62	96	1
TAP	62	96	7
STR	62	192	2
SCL	62	192	2	96	48	7
STR	62	192	3
SUL	62	192	3	96	48	6
TAP	63	0	4
TAP	63	0	5
TAP	63	96	0
TAP	63	96	2
STR	63	192	4
SUR	63	192	4	96	48	1
STR	63	192	5
SCR	63	192	5	96	48	0
TAP	64	0	2
TAP	64	0	3
TAP	64	96	5
TAP	64	96	7
STR	64	192	0
SI_	64	192	0	96	48	5
STR	64	192	7
SI_	64	192	7	96	48	2
TAP	65	0	3
TAP	65	0	4
TAP	65	96	3
TAP	65	96	4
TAP	65	192	2
TAP	65	192	5
TAP	65	288	1
TAP	65	288	6
TAP	66	0	0
TAP	66	48	7
BRK	66	96	1
BRK	66	96	6
TAP	66	192	2
STR	66	192	5
SCR	66	192	5	96	192	2
STR	67	192	0
SI_	67	192	0	96	48	5
STR	67	192	1
SI_	67	192	1	96	48	4
STR	68	0	6
SI_	68	0	6	96	48	3
STR	68	0	7
SI_	68	0	7	96	48	2
STR	68	192	2
SCL	68	192	2	96	192	5
TAP	68	192	5
TAP	69	192	0
TAP	69	192	7
TAP	69	288	1
TAP	69	288	6
TAP	70	0	2
TAP	70	0	5
TAP	70	96	3
TAP	70	96	4
STR	70	144	3
SI_	70	144	3	96	48	7
STR	70	144	4
SI_	70	144	4	96	48	0
TAP	71	0	1
TAP	71	0	6
TAP	71	96	2
TAP	71	96	3
STR	71	144	2
SI_	71	144	2	96	48	6
STR	71	144	3
SI_	71	144	3	96	48	7
TAP	72	0	0
TAP	72	0	5
TAP	72	96	4
TAP	72	96	5
STR	72	144	4
SI_	72	144	4	96	48	0
STR	72	144	5
SI_	72	144	5	96	48	1
TAP	73	0	2
TAP	73	0	7
TAP	73	96	1
TAP	73	96	6
STR	73	144	1
SI_	73	144	1	96	48	5
STR	73	144	6
SI_	73	144	6	96	48	2
TAP	74	0	3
TAP	74	0	4
TAP	74	96	0
TAP	74	96	7
BRK	74	192	2
BST	74	192	5
SCR	74	192	5	96	192	2
STR	75	192	2
SI_	75	192	2	96	48	6
STR	75	192	3
SI_	75	192	3	96	48	6
STR	76	0	4
SI_	76	0	4	96	48	1
STR	76	0	5
SI_	76	0	5	96	48	1
STR	76	192	7
SCL	76	192	7	96	48	4
STR	76	288	0
SCR	76	288	0	96	48	3
STR	77	0	7
SI_	77	0	7	96	48	3
STR	77	96	0
SI_	77	96	0	96	48	4
STR	77	192	6
SCL	77	192	6	96	192	1
TAP	78	192	0
TAP	78	192	7
TAP	78	288	3
TAP	78	288	6
STR	79	0	4
SF_	79	0	4	96	96	0
TAP	79	0	5
TAP	79	288	1
TAP	79	288	4
TAP	80	0	2
STR	80	0	3
SF_	80	0	3	96	96	7
TAP	80	288	4
TAP	80	288	5
TAP	81	0	2
TAP	81	0	3
TAP	81	96	1
TAP	81	96	6
TAP	81	192	0
TAP	81	240	0
TAP	81	288	7
TAP	81	336	7
TAP	82	0	0
TAP	82	48	7
TAP	82	96	0
TAP	82	144	7
BRK	82	192	1
BRK	82	192	6
STR	83	0	3
SI_	83	0	3	96	48	0
STR	83	0	4
SI_	83	0	4	96	48	7
HLD	83	192	1	96
HLD	83	192	4	96
STR	83	336	2
SUR	83	336	2	96	48	7
STR	83	336	3
SCR	83	336	3	96	48	6
HLD	84	192	3	96
HLD	84	192	6	96
STR	84	336	4
SCL	84	336	4	96	48	1
STR	84	336	5
SUL	84	336	5	96	48	0
HLD	85	192	1	96
HLD	85	192	4	96
STR	85	336	2
SCL	85	336	2	96	48	7
STR	85	336	3
SUL	85	336	3	96	48	6
HLD	86	192	3	96
HLD	86	192	6	96
STR	86	336	4
SUR	86	336	4	96	48	1
STR	86	336	5
SCR	86	336	5	96	48	0
HLD	87	192	2	96
HLD	87	192	5	96
STR	87	336	3
SI_	87	336	3	96	48	7
STR	87	336	4
SI_	87	336	4	96	48	0
TAP	88	192	5
TAP	88	192	7
TAP	88	288	0
TAP	88	288	2
TAP	89	0	4
TAP	89	0	5
TAP	89	96	2
TAP	89	96	3
HLD	89	192	1	96
HLD	89	192	6	96
STR	89	336	0
SI_	89	336	0	96	48	4
STR	89	336	7
SI_	89	336	7	96	48	3
HLD	90	192	2	96
HLD	90	192	5	96
BRK	90	336	0
BRK	90	336	7

T_REC_TAP	267
T_REC_BRK	12
T_REC_XTP	0
T_REC_HLD	64
T_REC_XHO	0
T_REC_STR	78
T_REC_BST	5
T_REC_XST	0
T_REC_TTP	0
T_REC_THO	0
T_REC_SLD	83
T_REC_ALL	509
T_NUM_TAP	345
T_NUM_BRK	17
T_NUM_HLD	64
T_NUM_SLD	83
T_NUM_ALL	509
T_JUDGE_TAP	362
T_JUDGE_HLD	165
T_JUDGE_SLD	83
T_JUDGE_ALL	610
TTM_EACHPAIRS	156
TTM_SCR_TAP	172500
TTM_SCR_BRK	44200
TTM_SCR_HLD	64000
TTM_SCR_SLD	124500
TTM_SCR_ALL	405200
TTM_SCR_S	391400
TTM_SCR_SS	403500
TTM_RAT_ACV	10042

