VERSION	0.00.00	1.03.00
FES_MODE	0
BPM_DEF	168.000	168.000	168.000	168.000
MET_DEF	4	4
RESOLUTION	384
CLK_DEF	384
COMPATIBLE_CODE	MA2

BPM	0	0	168.000
MET	0	0	4	4
MET	50	0	4	2
MET	50	192	4	4

TAP	2	0	3
TAP	2	96	3
TAP	2	192	2
TAP	2	192	4
TAP	3	0	5
TAP	3	96	5
TAP	3	192	4
TAP	3	192	6
TAP	4	0	2
TAP	4	96	2
TAP	4	192	1
TAP	4	192	3
TAP	5	0	5
TAP	5	96	5
TAP	5	192	4
TAP	5	192	6
TAP	6	0	1
TAP	6	96	2
TAP	6	192	3
TAP	6	288	4
TAP	7	0	5
TAP	7	96	6
TAP	7	192	0
TAP	7	192	7
TAP	8	0	6
TAP	8	96	5
TAP	8	192	4
TAP	8	288	3
STR	9	0	2
SCL	9	0	2	96	144	7
TAP	10	0	4
TAP	10	96	4
TAP	10	192	3
TAP	10	192	5
TAP	11	0	2
TAP	11	96	2
TAP	11	192	1
TAP	11	192	3
TAP	12	0	5
TAP	12	96	5
TAP	12	192	4
TAP	12	192	6
TAP	13	0	2
TAP	13	96	2
TAP	13	192	1
TAP	13	192	3
TAP	14	0	6
TAP	14	96	5
TAP	14	192	4
TAP	14	288	3
TAP	15	0	2
TAP	15	96	1
TAP	15	192	0
TAP	15	192	7
TAP	16	0	1
TAP	16	96	2
TAP	16	192	3
TAP	16	288	4
STR	17	0	5
SCR	17	0	5	96	144	0
HLD	18	0	2	192
TAP	18	192	3
TAP	18	288	1
TAP	18	288	4
HLD	19	0	5	192
TAP	19	192	4
TAP	19	288	3
TAP	19	288	6
HLD	20	0	2	192
TAP	20	192	3
TAP	20	288	1
TAP	20	288	4
HLD	21	0	5	192
TAP	21	192	4
TAP	21	288	3
TAP	21	288	6
HLD	22	0	2	192
TAP	22	192	3
TAP	22	288	1
TAP	22	288	4
TAP	23	0	5
TAP	23	96	4
TAP	23	96	5
TAP	23	192	3
TAP	23	192	6
TAP	23	288	2
TAP	23	288	7
HLD	24	0	1	192
TAP	24	192	0
TAP	24	288	0
TAP	24	288	1
STR	25	0	0
SI_	25	0	0	96	96	3
STR	25	0	7
SI_	25	0	7	96	96	4
HLD	26	0	5	96
TAP	26	96	4
TAP	26	192	3
TAP	26	192	6
HLD	27	0	2	96
TAP	27	96	3
TAP	27	192	1
TAP	27	192	4
HLD	28	0	5	96
TAP	28	96	4
TAP	28	192	3
TAP	28	192	6
HLD	29	0	2	96
TAP	29	96	3
TAP	29	192	1
TAP	29	192	4
HLD	30	0	5	96
TAP	30	96	4
TAP	30	192	3
TAP	30	192	6
TAP	31	0	2
TAP	31	96	2
TAP	31	96	3
TAP	31	192	1
TAP	31	192	4
TAP	31	288	0
TAP	31	288	5
HLD	32	0	6	96
TAP	32	96	7
TAP	32	192	0
TAP	32	192	5
STR	33	0	0
SI_	33	0	0	96	96	3
STR	33	0	7
SI_	33	0	7	96	96	4
HLD	34	0	2	192
HLD	34	192	3	192
HLD	35	0	4	192
TAP	35	192	5
TAP	36	0	0
TAP	36	0	7
TAP	36	144	3
TAP	36	144	4
TAP	36	288	1
TAP	36	288	6
TAP	37	192	3
TAP	37	288	4
STR	38	0	5
SI_	38	0	5	96	96	0
STR	39	0	2
SI_	39	0	2	96	96	7
STR	40	0	4
SI_	40	0	4	96	96	1
STR	40	0	5
SI_	40	0	5	96	96	0
TAP	41	0	0
TAP	41	0	7
TAP	41	144	3
TAP	41	144	4
TAP	41	288	1
TAP	41	288	6
HLD	42	0	5	192
HLD	42	192	4	192
HLD	43	0	3	192
TAP	43	192	2
TAP	44	0	0
TAP	44	0	7
TAP	44	144	3
TAP	44	144	4
TAP	44	288	1
TAP	44	288	6
TAP	45	192	4
TAP	45	288	3
STR	46	0	2
SI_	46	0	2	96	96	7
STR	47	0	5
SI_	47	0	5	96	96	0
STR	48	0	2
SI_	48	0	2	96	96	7
STR	48	0	3
SI_	48	0	3	96	96	6
TAP	49	0	0
TAP	49	0	7
TAP	49	144	3
TAP	49	144	4
BRK	49	288	1
BRK	49	288	6
TAP	50	192	5
TAP	50	288	4
TAP	50	288	6
TAP	51	0	3
TAP	51	96	3
TAP	51	96	4
TAP	51	192	2
TAP	51	192	3
TAP	51	288	1
TAP	51	288	4
TAP	52	0	0
TAP	52	0	5
TAP	52	192	2
TAP	52	288	1
TAP	52	288	3
TAP	53	0	4
TAP	53	96	3
TAP	53	96	4
TAP	53	192	4
TAP	53	192	5
TAP	53	288	3
TAP	53	288	6
TAP	54	0	2
TAP	54	0	7
HLD	54	192	1	96
TAP	54	288	0
TAP	55	0	2
TAP	55	0	7
TAP	55	96	2
TAP	55	96	7
HLD	55	192	6	96
TAP	55	288	7
TAP	56	0	0
TAP	56	0	5
TAP	56	96	0
TAP	56	96	5
HLD	56	192	1	96
TAP	56	288	0
TAP	57	0	2
TAP	57	0	7
TAP	57	96	2
TAP	57	192	2
TAP	57	192	3
TAP	57	288	1
TAP	57	288	4
TAP	58	0	0
TAP	58	0	5
TAP	58	192	2
TAP	58	288	1
TAP	58	288	3
TAP	59	0	4
TAP	59	96	3
TAP	59	96	4
TAP	59	192	4
TAP	59	192	5
TAP	59	288	3
TAP	59	288	6
TAP	60	0	2
TAP	60	0	7
TAP	60	192	5
TAP	60	288	4
TAP	60	288	6
TAP	61	0	3
TAP	61	96	3
TAP	61	96	4
TAP	61	192	2
TAP	61	192	3
TAP	61	288	1
TAP	61	288	4
TAP	62	0	0
TAP	62	0	5
HLD	62	192	6	96
TAP	62	288	7
TAP	63	0	0
TAP	63	0	5
TAP	63	96	0
TAP	63	96	5
HLD	63	192	1	96
TAP	63	288	0
TAP	64	0	2
TAP	64	0	7
TAP	64	96	2
TAP	64	96	7
HLD	64	192	6	96
TAP	64	288	7
TAP	65	0	0
TAP	65	0	5
TAP	65	96	5
TAP	65	192	4
TAP	65	192	5
TAP	65	288	3
TAP	65	288	6
TAP	66	0	2
TAP	66	0	7
HLD	66	192	5	96
TAP	66	288	4
HLD	67	0	2	96
TAP	67	96	3
HLD	67	192	6	96
TAP	67	288	5
HLD	68	0	1	96
TAP	68	96	2
STR	68	192	5
SCR	68	192	5	96	144	0
TAP	69	192	2
TAP	69	288	1
TAP	69	288	3
TAP	70	0	5
TAP	70	96	4
TAP	70	96	6
HLD	70	192	1	96
TAP	70	288	0
TAP	71	0	0
TAP	71	0	1
TAP	71	96	2
TAP	71	96	7
HLD	71	192	6	96
TAP	71	288	7
TAP	72	0	6
TAP	72	0	7
TAP	72	96	0
TAP	72	96	5
TAP	72	192	1
TAP	72	288	0
TAP	72	288	2
TAP	73	0	6
TAP	73	96	5
TAP	73	96	7
STR	73	192	2
SCL	73	192	2	96	144	7
BRK	74	192	0
BRK	74	192	7
TAP	75	192	6
TAP	75	288	5
TAP	75	288	7
TAP	76	0	1
TAP	76	96	0
TAP	76	96	2
TAP	76	192	6
TAP	76	192	7
TAP	76	288	0
TAP	76	288	5
TAP	77	0	1
TAP	77	0	4
STR	77	96	2
SCL	77	96	2	96	144	7
STR	77	96	3
SCR	77	96	3	96	144	6
TAP	78	192	1
TAP	78	288	0
TAP	78	288	2
TAP	79	0	6
TAP	79	96	5
TAP	79	96	7
TAP	79	192	0
TAP	79	192	1
TAP	79	288	2
TAP	79	288	7
TAP	80	0	3
TAP	80	0	6
STR	80	96	4
SCL	80	96	4	96	144	1
STR	80	96	5
SCR	80	96	5	96	144	0
TAP	81	192	0
TAP	81	192	7
TAP	81	288	1
TAP	81	288	6
TAP	82	0	2
TAP	82	0	5
STR	82	96	3
SCL	82	96	3	96	144	0
STR	82	96	4
SCR	82	96	4	96	144	7
HLD	83	192	2	96
HLD	83	192	3	96
TAP	84	0	1
TAP	84	0	4
TAP	84	96	0
HLD	84	192	4	96
HLD	84	192	5	96
TAP	85	0	3
TAP	85	0	6
TAP	85	96	7
HLD	85	192	2	96
HLD	85	192	3	96
TAP	86	0	1
TAP	86	0	4
TAP	86	96	0
HLD	86	192	4	96
HLD	86	192	5	96
TAP	87	0	3
TAP	87	0	6
TAP	87	96	7
HLD	87	192	1	96
HLD	87	192	3	96
HLD	88	0	4	96
HLD	88	0	6	96
TAP	88	192	2
TAP	88	192	3
TAP	88	288	1
TAP	88	288	4
TAP	89	0	4
TAP	89	0	5
TAP	89	96	3
TAP	89	96	6
HLD	89	192	3	96
HLD	89	192	4	96
HLD	90	0	2	96
HLD	90	0	5	96
TAP	90	192	0
TAP	90	192	7
TAP	90	288	1
TAP	90	288	6
BRK	90	336	1
BRK	90	336	6

T_REC_TAP	302
T_REC_BRK	6
T_REC_XTP	0
T_REC_HLD	46
T_REC_XHO	0
T_REC_STR	22
T_REC_BST	0
T_REC_XST	0
T_REC_TTP	0
T_REC_THO	0
T_REC_SLD	22
T_REC_ALL	398
T_NUM_TAP	324
T_NUM_BRK	6
T_NUM_HLD	46
T_NUM_SLD	22
T_NUM_ALL	398
T_JUDGE_TAP	330
T_JUDGE_HLD	116
T_JUDGE_SLD	22
T_JUDGE_ALL	468
TTM_EACHPAIRS	124
TTM_SCR_TAP	162000
TTM_SCR_BRK	15600
TTM_SCR_HLD	46000
TTM_SCR_SLD	33000
TTM_SCR_ALL	256600
TTM_SCR_S	248350
TTM_SCR_SS	256000
TTM_RAT_ACV	10023

