VERSION	0.00.00	1.03.00
FES_MODE	0
BPM_DEF	168.000	168.000	168.000	168.000
MET_DEF	4	4
RESOLUTION	384
CLK_DEF	384
COMPATIBLE_CODE	MA2

BPM	0	0	168.000
MET	0	0	4	4
MET	50	0	4	2
MET	50	192	4	4

TAP	2	0	0
TAP	2	192	0
TAP	3	0	1
TAP	3	192	1
TAP	4	0	2
TAP	4	192	2
TAP	5	0	3
TAP	5	192	3
TAP	5	192	4
TAP	6	0	5
TAP	6	96	5
TAP	6	192	5
TAP	7	0	2
TAP	7	96	2
TAP	7	192	2
STR	8	0	4
SI_	8	0	4	96	288	0
TAP	10	0	7
TAP	10	192	7
TAP	11	0	6
TAP	11	192	6
TAP	12	0	5
TAP	12	192	5
TAP	13	0	4
TAP	13	192	3
TAP	13	192	4
TAP	14	0	2
TAP	14	96	2
TAP	14	192	2
TAP	15	0	5
TAP	15	96	5
TAP	15	192	5
STR	16	0	3
SI_	16	0	3	96	288	7
HLD	18	0	0	192
HLD	19	0	1	192
HLD	20	0	2	192
HLD	21	0	3	192
HLD	22	0	4	192
HLD	23	0	5	192
HLD	24	0	6	192
HLD	25	0	7	192
TAP	26	0	7
TAP	26	192	7
TAP	27	0	6
TAP	27	192	6
TAP	28	0	5
TAP	28	192	5
TAP	29	0	4
TAP	29	192	4
TAP	30	0	3
TAP	30	192	3
TAP	31	0	2
TAP	31	192	2
TAP	32	0	1
TAP	32	192	1
BRK	33	0	0
STR	34	0	0
SI_	34	0	0	96	288	3
HLD	36	0	4	288
TAP	38	0	4
TAP	38	96	4
TAP	38	192	4
TAP	39	0	5
TAP	39	96	5
TAP	39	192	5
TAP	40	0	6
TAP	40	96	6
TAP	40	192	6
TAP	41	0	0
TAP	41	0	7
TAP	41	192	0
TAP	41	192	7
STR	42	0	7
SI_	42	0	7	96	288	4
HLD	44	0	3	288
TAP	46	0	3
TAP	46	96	3
TAP	46	192	3
TAP	47	0	2
TAP	47	96	2
TAP	47	192	2
TAP	48	0	1
TAP	48	96	1
TAP	48	192	1
TAP	49	0	0
TAP	49	96	0
TAP	49	192	7
BRK	49	288	7
TAP	50	192	0
TAP	50	288	0
TAP	51	0	0
TAP	51	192	7
TAP	51	288	7
TAP	52	0	7
TAP	52	192	0
TAP	52	288	0
TAP	53	0	1
TAP	53	96	1
TAP	53	192	2
TAP	53	288	2
TAP	54	0	2
TAP	54	0	3
TAP	54	192	4
TAP	54	288	4
TAP	55	0	4
TAP	55	0	5
TAP	55	192	3
TAP	55	288	3
TAP	56	0	2
TAP	56	0	3
TAP	56	192	3
TAP	56	288	4
TAP	57	0	3
HLD	57	192	3	192
HLD	57	192	4	192
TAP	58	192	4
TAP	58	288	4
TAP	59	0	4
TAP	59	192	3
TAP	59	288	3
TAP	60	0	3
TAP	60	192	4
TAP	60	288	4
TAP	61	0	5
TAP	61	96	5
TAP	61	192	6
TAP	61	288	6
TAP	62	0	6
TAP	62	0	7
TAP	62	192	0
TAP	62	288	0
TAP	63	0	0
TAP	63	0	1
TAP	63	192	7
TAP	63	288	7
TAP	64	0	6
TAP	64	0	7
STR	64	192	0
SI_	64	192	0	96	288	4
TAP	66	192	5
TAP	66	288	5
TAP	67	0	5
TAP	67	192	4
TAP	67	288	4
TAP	68	0	4
HLD	68	192	3	192
TAP	69	192	2
TAP	69	288	2
TAP	70	0	2
TAP	70	192	1
TAP	70	288	1
TAP	71	0	0
TAP	71	0	1
TAP	71	192	6
TAP	71	288	6
TAP	72	0	6
TAP	72	0	7
TAP	72	192	0
TAP	72	288	0
TAP	73	0	7
TAP	73	96	7
TAP	73	192	0
TAP	74	192	1
TAP	74	288	1
TAP	75	0	1
TAP	75	192	2
TAP	75	288	2
TAP	76	0	2
TAP	76	192	3
TAP	76	288	3
TAP	77	0	4
TAP	77	96	4
TAP	77	192	3
TAP	78	192	4
TAP	78	288	4
TAP	79	0	4
TAP	79	192	5
TAP	79	288	5
TAP	80	0	5
STR	80	192	6
SI_	80	192	6	96	288	2
BRK	82	192	0
TAP	83	192	0
TAP	83	288	0
TAP	84	0	1
TAP	84	96	1
TAP	84	192	2
TAP	84	288	2
TAP	85	0	3
TAP	85	96	3
TAP	85	192	4
TAP	85	288	4
TAP	86	0	5
TAP	86	96	5
TAP	86	192	6
TAP	86	288	6
TAP	87	0	0
TAP	87	0	7
TAP	87	192	6
TAP	87	288	6
TAP	88	0	5
TAP	88	96	5
TAP	88	192	4
TAP	88	288	4
TAP	89	0	3
TAP	89	96	3
TAP	89	192	2
TAP	89	288	2
TAP	90	0	1
TAP	90	96	1
STR	90	192	0
SI_	90	192	0	96	288	4

T_REC_TAP	183
T_REC_BRK	3
T_REC_XTP	0
T_REC_HLD	13
T_REC_XHO	0
T_REC_STR	7
T_REC_BST	0
T_REC_XST	0
T_REC_TTP	0
T_REC_THO	0
T_REC_SLD	7
T_REC_ALL	213
T_NUM_TAP	190
T_NUM_BRK	3
T_NUM_HLD	13
T_NUM_SLD	7
T_NUM_ALL	213
T_JUDGE_TAP	193
T_JUDGE_HLD	56
T_JUDGE_SLD	7
T_JUDGE_ALL	256
TTM_EACHPAIRS	14
TTM_SCR_TAP	95000
TTM_SCR_BRK	7800
TTM_SCR_HLD	13000
TTM_SCR_SLD	10500
TTM_SCR_ALL	126300
TTM_SCR_S	122250
TTM_SCR_SS	126000
TTM_RAT_ACV	10023

