VERSION	0.00.00	1.03.00
FES_MODE	0
BPM_DEF	175.000	175.000	175.000	175.000
MET_DEF	4	4
RESOLUTION	384
CLK_DEF	384
COMPATIBLE_CODE	MA2

BPM	0	0	175.000

TAP	1	0	2
TAP	1	24	3
HLD	1	48	4	1320
TAP	2	0	5
TAP	2	144	6
STR	2	288	7
SXL	2	288	7	96	600	2
BRK	5	48	0
BRK	5	48	7
HLD	5	336	3	96
TAP	5	336	4
TAP	6	48	6
TAP	6	72	4
TAP	6	96	5
TAP	6	144	1
TAP	6	168	3
TAP	6	192	2
TAP	6	240	6
TAP	6	264	4
TAP	6	288	5
STR	6	336	2
SCL	6	336	2	96	48	7
TAP	7	48	3
TAP	7	96	4
STR	7	144	5
SCR	7	144	5	96	48	0
TAP	7	240	4
TAP	7	288	3
HLD	7	336	2	96
TAP	8	48	6
TAP	8	72	4
TAP	8	96	5
TAP	8	144	1
TAP	8	168	3
TAP	8	192	2
STR	8	240	6
SXL	8	240	6	96	144	1
TAP	8	264	4
TAP	8	288	5
TAP	8	336	2
TAP	9	192	3
TAP	9	192	4
TAP	9	240	2
TAP	9	240	5
TAP	9	288	1
TAP	9	288	6
BRK	9	336	0
HLD	9	336	7	96
TAP	10	48	2
TAP	10	72	0
TAP	10	96	1
TAP	10	144	5
TAP	10	168	7
TAP	10	192	6
TAP	10	240	2
TAP	10	264	0
TAP	10	288	1
STR	10	336	6
SCL	10	336	6	96	48	3
TAP	11	48	7
TAP	11	96	0
STR	11	144	1
SCR	11	144	1	96	48	4
TAP	11	240	0
TAP	11	288	7
HLD	11	336	6	96
TAP	12	48	2
TAP	12	72	0
TAP	12	96	1
TAP	12	144	5
TAP	12	168	7
TAP	12	192	6
TAP	12	240	2
TAP	12	264	0
TAP	12	288	1
TAP	12	336	2
TAP	12	336	5
TAP	13	0	3
TAP	13	24	4
TAP	13	48	3
TAP	13	72	4
STR	13	96	3
SCL	13	96	3	96	48	0
TAP	13	120	4
TAP	13	144	3
TAP	13	168	4
BST	13	192	3
SCR	13	192	3	96	48	6
BRK	13	288	3
STR	14	0	1
SI_	14	0	1	96	48	4
TAP	14	24	0
TAP	14	48	1
TAP	14	72	0
BRK	14	96	1
STR	14	192	6
SI_	14	192	6	96	48	3
TAP	14	216	7
TAP	14	240	6
TAP	14	264	7
BRK	14	288	6
STR	15	0	1
SI_	15	0	1	96	48	4
TAP	15	24	0
TAP	15	48	1
TAP	15	72	0
BRK	15	96	1
STR	15	192	3
SI_	15	192	3	96	48	0
STR	15	192	5
SV_	15	192	5	96	48	0
BRK	15	288	3
BRK	15	288	5
STR	16	0	6
SI_	16	0	6	96	48	3
TAP	16	24	7
TAP	16	48	6
TAP	16	72	7
BRK	16	96	6
STR	16	192	1
SI_	16	192	1	96	48	4
TAP	16	216	0
TAP	16	240	1
TAP	16	264	0
BRK	16	288	1
STR	17	0	6
SI_	17	0	6	96	48	3
TAP	17	24	7
TAP	17	48	6
TAP	17	72	7
BRK	17	96	6
STR	17	192	2
SV_	17	192	2	96	48	7
STR	17	192	4
SI_	17	192	4	96	48	7
BRK	17	288	2
BRK	17	288	4
STR	18	0	1
SI_	18	0	1	96	48	4
TAP	18	24	0
TAP	18	48	1
TAP	18	72	0
BRK	18	96	1
STR	18	192	6
SI_	18	192	6	96	48	3
TAP	18	216	7
TAP	18	240	6
TAP	18	264	7
BRK	18	288	6
STR	19	0	1
SI_	19	0	1	96	48	4
TAP	19	24	0
TAP	19	48	1
TAP	19	72	0
BRK	19	96	1
STR	19	192	3
SI_	19	192	3	96	48	0
STR	19	192	5
SV_	19	192	5	96	48	0
BRK	19	288	3
BRK	19	288	5
BST	20	0	2
SI_	20	0	2	96	48	6
BST	20	48	3
SI_	20	48	3	96	48	7
BST	20	192	4
SI_	20	192	4	96	48	0
BST	20	240	5
SI_	20	240	5	96	48	1
BRK	21	48	3
BRK	21	48	7
BRK	21	96	2
BRK	21	96	6
BRK	21	144	1
BRK	21	144	5
BST	21	192	0
SCR	21	192	0	96	48	3
BST	21	192	4
SCR	21	192	4	96	48	7
HLD	22	0	2	96
TAP	22	48	3
HLD	22	96	5	96
TAP	22	144	4
HLD	22	192	1	96
TAP	22	240	3
HLD	22	288	6	96
TAP	22	336	4
HLD	23	0	0	96
TAP	23	48	2
HLD	23	96	7	96
TAP	23	144	5
HLD	23	192	1	96
TAP	23	240	3
HLD	23	288	6	96
TAP	23	336	4
HLD	24	0	2	96
TAP	24	48	0
HLD	24	96	5	96
TAP	24	144	7
HLD	24	192	3	96
TAP	24	240	1
HLD	24	288	4	96
TAP	24	336	6
STR	25	0	2
SI_	25	0	2	96	48	7
TAP	25	24	3
TAP	25	48	2
TAP	25	72	3
BRK	25	96	2
STR	25	192	5
SI_	25	192	5	96	48	0
TAP	25	216	4
TAP	25	240	5
TAP	25	264	4
BRK	25	288	5
HLD	26	0	1	96
TAP	26	48	0
HLD	26	96	6	96
TAP	26	144	7
HLD	26	192	2	96
TAP	26	240	0
HLD	26	288	5	96
TAP	26	336	7
HLD	27	0	3	96
TAP	27	48	1
HLD	27	96	4	96
TAP	27	144	6
HLD	27	192	2	96
TAP	27	240	0
HLD	27	288	5	96
TAP	27	336	7
HLD	28	0	1	96
TAP	28	48	3
HLD	28	96	6	96
TAP	28	144	4
HLD	28	192	0	96
TAP	28	240	2
HLD	28	288	7	96
TAP	28	336	5
BST	29	0	2
SI_	29	0	2	96	48	7
BRK	29	24	4
BRK	29	48	2
BRK	29	72	4
BRK	29	96	2
BST	29	192	5
SI_	29	192	5	96	48	0
BRK	29	216	3
BRK	29	240	5
BRK	29	264	3
BRK	29	288	5
STR	30	0	1
SI_	30	0	1	96	48	4
TAP	30	48	1
STR	30	96	5
SI_	30	96	5	96	48	0
TAP	30	144	5
STR	30	192	2
SI_	30	192	2	96	48	7
TAP	30	240	2
STR	30	288	6
SI_	30	288	6	96	48	3
TAP	30	336	6
STR	31	0	0
SI_	31	0	0	96	48	4
TAP	31	48	0
STR	31	96	3
SI_	31	96	3	96	48	7
TAP	31	144	3
STR	31	192	4
SI_	31	192	4	96	48	0
TAP	31	240	4
STR	31	288	7
SI_	31	288	7	96	48	3
TAP	31	336	7
STR	32	0	1
SCL	32	0	1	96	48	6
TAP	32	48	1
STR	32	96	5
SCL	32	96	5	96	48	2
TAP	32	144	5
STR	32	192	7
SI_	32	192	7	96	48	3
TAP	32	240	7
TAP	32	288	4
TAP	32	336	4
STR	33	0	2
SI_	33	0	2	96	48	7
TAP	33	24	6
TAP	33	48	2
TAP	33	72	6
BRK	33	96	2
STR	33	192	5
SI_	33	192	5	96	48	0
TAP	33	216	1
TAP	33	240	5
TAP	33	264	1
BRK	33	288	5
TAP	34	0	3
BRK	34	48	6
BRK	34	48	7
TAP	34	96	4
BRK	34	144	0
BRK	34	144	1
TAP	34	192	3
BRK	34	240	0
BRK	34	240	6
TAP	34	288	4
BRK	34	336	1
BRK	34	336	7
TAP	35	0	2
TAP	35	0	3
BRK	35	48	0
BRK	35	48	6
TAP	35	96	4
TAP	35	96	5
BRK	35	144	1
BRK	35	144	7
TAP	35	192	2
TAP	35	192	4
BRK	35	240	0
BRK	35	240	6
TAP	35	288	3
TAP	35	288	5
BRK	35	336	1
BRK	35	336	7
TAP	36	0	2
TAP	36	0	3
BRK	36	48	0
BRK	36	48	5
TAP	36	96	4
TAP	36	96	5
BRK	36	144	2
BRK	36	144	7
BRK	36	192	0
BRK	36	192	7
BRK	36	264	1
BRK	36	264	6
BST	36	288	1
SI_	36	288	1	96	48	5
BST	36	288	6
SI_	36	288	6	96	48	2
BRK	37	0	1
BRK	37	0	6
STR	38	288	1
SUL	38	288	1	96	48	5
STR	38	288	5
SI_	38	288	5	96	48	2
BRK	41	24	2
HLD	42	0	3	48
HLD	42	0	4	48
HLD	42	96	3	48
HLD	42	96	4	48
HLD	42	192	2	48
HLD	42	192	4	48
HLD	42	288	3	48
HLD	42	288	5	48
TAP	43	0	3
TAP	43	48	2
TAP	43	48	4
TAP	43	96	5
TAP	43	144	3
TAP	43	144	6
TAP	43	192	1
TAP	43	240	0
TAP	43	240	5
TAP	43	288	7
TAP	43	336	1
TAP	43	336	6
STR	44	0	0
SCR	44	0	0	96	48	4
TAP	44	48	0
TAP	44	96	6
TAP	44	144	6
STR	44	192	7
SUL	44	192	7	96	48	3
TAP	44	240	7
TAP	44	288	1
TAP	44	336	1
STR	45	0	0
SUR	45	0	0	96	48	5
TAP	45	48	0
TAP	45	96	6
TAP	45	144	6
TAP	45	192	7
TAP	45	216	0
TAP	45	240	7
BRK	45	288	1
BRK	45	288	6
TAP	45	336	0
STR	46	0	7
SCL	46	0	7	96	48	3
TAP	46	48	7
TAP	46	96	1
TAP	46	144	1
STR	46	192	0
SUR	46	192	0	96	48	4
TAP	46	240	0
TAP	46	288	6
TAP	46	336	6
STR	47	0	7
SUL	47	0	7	96	48	2
TAP	47	48	7
TAP	47	96	1
TAP	47	144	1
TAP	47	192	0
TAP	47	216	7
TAP	47	240	0
BRK	47	288	1
BRK	47	288	6
TAP	47	336	5
STR	48	0	3
SCL	48	0	3	96	48	7
TAP	48	48	3
TAP	48	96	5
TAP	48	144	5
STR	48	192	4
SUR	48	192	4	96	48	0
TAP	48	240	4
TAP	48	288	2
TAP	48	336	2
STR	49	0	3
SUL	49	0	3	96	48	6
TAP	49	48	3
TAP	49	96	5
TAP	49	144	5
TAP	49	192	4
TAP	49	216	3
TAP	49	240	4
BRK	49	288	2
BRK	49	288	5
BRK	49	336	0
BRK	49	336	7
TAP	50	48	0
TAP	50	48	1
BRK	50	96	2
BRK	50	96	7
TAP	50	144	3
TAP	50	144	6
BRK	50	192	4
BRK	50	192	5
TAP	50	240	2
TAP	50	240	3
BRK	50	288	1
BRK	50	288	4
TAP	50	336	0
TAP	50	336	5
BRK	51	0	0
BRK	51	0	4
TAP	51	24	1
TAP	51	24	5
BRK	51	48	2
BRK	51	48	6
BRK	51	144	3
BRK	51	144	7
TAP	51	168	2
TAP	51	168	6
BRK	51	192	1
BRK	51	192	5
BRK	51	288	0
BRK	51	288	7
TAP	51	312	1
TAP	51	312	6
BST	51	336	2
SXR	51	336	2	96	144	4
BST	51	336	5
SXL	51	336	5	96	144	3
BRK	52	240	0
BRK	52	240	7
BRK	52	336	1
BRK	52	336	6
TAP	53	48	5
TAP	53	72	4
TAP	53	96	6
TAP	53	144	2
TAP	53	168	3
TAP	53	192	1
STR	53	240	5
SUR	53	240	5	96	48	1
TAP	53	264	4
TAP	53	288	6
BRK	53	336	3
BRK	53	336	5
STR	54	48	2
SUL	54	48	2	96	48	6
TAP	54	96	3
BRK	54	144	2
BRK	54	144	4
TAP	54	240	7
TAP	54	288	0
BRK	54	336	1
BRK	54	336	6
TAP	55	48	2
TAP	55	72	3
TAP	55	96	1
TAP	55	144	5
TAP	55	168	4
TAP	55	192	6
STR	55	240	2
SUR	55	240	2	96	240	5
TAP	55	264	3
TAP	55	288	1
BRK	55	336	2
BRK	55	336	5
TAP	56	48	6
TAP	56	96	6
TAP	56	144	7
TAP	56	192	7
TAP	56	240	0
TAP	56	288	0
BRK	56	336	1
BRK	56	336	6
TAP	57	48	2
TAP	57	72	3
TAP	57	96	1
TAP	57	144	5
TAP	57	168	4
TAP	57	192	6
STR	57	240	2
SUL	57	240	2	96	48	6
TAP	57	264	3
TAP	57	288	1
BRK	57	336	2
BRK	57	336	4
STR	58	48	5
SUR	58	48	5	96	48	1
TAP	58	96	4
BRK	58	144	3
BRK	58	144	5
TAP	58	240	0
TAP	58	288	7
BRK	58	336	1
BRK	58	336	6
TAP	59	48	5
TAP	59	72	4
TAP	59	96	6
TAP	59	144	2
TAP	59	168	3
TAP	59	192	1
TAP	59	240	5
TAP	59	264	4
TAP	59	288	6
BRK	59	336	2
BRK	59	336	5
BST	60	48	3
SI_	60	48	3	96	48	0
BST	60	96	4
SI_	60	96	4	96	48	7
BRK	60	144	3
BRK	60	192	4
BRK	60	288	1
BRK	60	288	6
STR	60	336	5
SI_	60	336	5	96	48	1
TAP	61	96	2
STR	61	144	2
SI_	61	144	2	96	48	7
STR	61	240	4
SI_	61	240	4	96	48	0
STR	61	336	3
SCL	61	336	3	96	240	4
BRK	63	0	0
BRK	63	0	7
BRK	63	48	3
BRK	63	48	4
BRK	63	96	1
BRK	63	96	6
STR	63	192	0
SXL	63	192	0	96	48	2
STR	63	192	7
SXR	63	192	7	96	48	5
TAP	63	288	0
TAP	63	288	7
STR	64	0	1
SI_	64	0	1	96	48	4
TAP	64	24	0
TAP	64	48	2
TAP	64	72	7
BRK	64	96	1
STR	64	192	6
SI_	64	192	6	96	48	3
TAP	64	216	7
TAP	64	240	5
TAP	64	264	0
BRK	64	288	6
STR	65	0	1
SI_	65	0	1	96	48	4
TAP	65	24	0
TAP	65	48	2
TAP	65	72	7
BRK	65	96	1
STR	65	192	3
SI_	65	192	3	96	48	0
STR	65	192	5
SV_	65	192	5	96	48	0
TAP	65	240	2
TAP	65	240	6
BRK	65	288	3
BRK	65	288	5
STR	66	0	6
SI_	66	0	6	96	48	3
TAP	66	24	7
TAP	66	48	5
TAP	66	72	0
BRK	66	96	6
STR	66	192	1
SI_	66	192	1	96	48	4
TAP	66	216	0
TAP	66	240	2
TAP	66	264	7
BRK	66	288	1
STR	67	0	6
SI_	67	0	6	96	48	3
TAP	67	24	7
TAP	67	48	5
TAP	67	72	0
BRK	67	96	6
STR	67	192	2
SV_	67	192	2	96	48	7
STR	67	192	4
SI_	67	192	4	96	48	7
TAP	67	240	1
TAP	67	240	5
BRK	67	288	2
BRK	67	288	4
STR	68	0	1
SI_	68	0	1	96	48	4
TAP	68	24	0
TAP	68	48	2
TAP	68	72	7
BRK	68	96	1
STR	68	192	6
SI_	68	192	6	96	48	3
TAP	68	216	7
TAP	68	240	5
TAP	68	264	0
BRK	68	288	6
STR	69	0	1
SI_	69	0	1	96	48	4
TAP	69	24	0
TAP	69	48	2
TAP	69	72	7
BRK	69	96	1
STR	69	192	3
SI_	69	192	3	96	48	0
STR	69	192	5
SV_	69	192	5	96	48	0
TAP	69	240	2
TAP	69	240	6
BRK	69	288	3
BRK	69	288	5
BST	70	0	2
SI_	70	0	2	96	48	6
BST	70	48	5
SI_	70	48	5	96	48	1
BST	70	192	4
SI_	70	192	4	96	48	0
BST	70	240	3
SI_	70	240	3	96	48	7
BRK	71	48	0
BRK	71	48	1
BRK	71	96	6
BRK	71	96	7
BRK	71	144	4
BRK	71	144	5
BRK	71	192	2
BRK	71	192	3
BRK	71	288	0
BRK	71	288	1
BST	71	336	0
SXR	71	336	0	96	336	5
BST	71	336	1
SXL	71	336	1	96	336	4

T_REC_TAP	301
T_REC_BRK	145
T_REC_XTP	0
T_REC_HLD	37
T_REC_XHO	0
T_REC_STR	74
T_REC_BST	21
T_REC_XST	0
T_REC_TTP	0
T_REC_THO	0
T_REC_SLD	95
T_REC_ALL	673
T_NUM_TAP	375
T_NUM_BRK	166
T_NUM_HLD	37
T_NUM_SLD	95
T_NUM_ALL	673
T_JUDGE_TAP	541
T_JUDGE_HLD	92
T_JUDGE_SLD	95
T_JUDGE_ALL	728
TTM_EACHPAIRS	98
TTM_SCR_TAP	187500
TTM_SCR_BRK	431600
TTM_SCR_HLD	37000
TTM_SCR_SLD	142500
TTM_SCR_ALL	798600
TTM_SCR_S	758550
TTM_SCR_SS	782000
TTM_RAT_ACV	10212

