VERSION	0.00.00	1.03.00
FES_MODE	0
BPM_DEF	175.000	175.000	175.000	175.000
MET_DEF	4	4
RESOLUTION	384
CLK_DEF	384
COMPATIBLE_CODE	MA2

BPM	0	0	175.000

STR	1	0	3
SXL	1	0	3	96	672	0
HLD	5	336	2	96
HLD	5	336	7	432
TAP	6	96	2
TAP	6	192	3
TAP	6	288	2
STR	7	0	0
SCR	7	0	0	96	96	3
HLD	7	336	0	432
HLD	7	336	5	96
TAP	8	96	5
TAP	8	192	4
TAP	8	288	5
STR	9	0	7
SCL	9	0	7	96	96	4
HLD	9	336	2	96
HLD	9	336	7	432
TAP	10	96	2
TAP	10	192	0
TAP	10	288	1
STR	11	0	2
SUL	11	0	2	96	96	5
HLD	11	336	0	432
HLD	11	336	5	96
TAP	12	96	5
TAP	12	192	4
TAP	12	288	7
STR	13	0	6
SUL	13	0	6	96	96	1
TAP	13	288	0
TAP	13	288	1
STR	14	0	4
SI_	14	0	4	96	48	7
TAP	14	0	5
TAP	14	192	2
STR	14	192	3
SI_	14	192	3	96	48	0
STR	15	0	4
SI_	15	0	4	96	48	7
TAP	15	0	5
TAP	15	192	0
TAP	15	192	1
BRK	15	288	3
BRK	15	288	6
TAP	16	0	2
STR	16	0	3
SI_	16	0	3	96	48	0
STR	16	192	4
SI_	16	192	4	96	48	7
TAP	16	192	5
TAP	17	0	2
STR	17	0	3
SI_	17	0	3	96	48	0
TAP	17	192	6
TAP	17	192	7
BRK	17	288	1
BRK	17	288	4
STR	18	0	4
SI_	18	0	4	96	48	0
TAP	18	0	5
TAP	18	192	2
STR	18	192	3
SI_	18	192	3	96	48	7
STR	19	0	4
SI_	19	0	4	96	48	0
TAP	19	0	5
TAP	19	192	2
TAP	19	192	3
BRK	19	288	0
BRK	19	288	5
TAP	20	0	4
TAP	20	0	5
TAP	20	48	4
TAP	20	48	5
TAP	20	192	2
TAP	20	192	3
TAP	20	240	2
TAP	20	240	3
TAP	21	48	0
TAP	21	48	7
STR	21	96	0
SI_	21	96	0	96	96	4
STR	21	96	7
SI_	21	96	7	96	96	3
TAP	22	0	4
STR	22	0	5
SI_	22	0	5	96	48	7
TAP	22	96	0
TAP	22	192	4
STR	22	192	5
SI_	22	192	5	96	48	7
TAP	22	288	0
STR	23	0	2
SI_	23	0	2	96	48	0
TAP	23	0	3
TAP	23	96	7
STR	23	192	2
SI_	23	192	2	96	48	0
TAP	23	192	3
TAP	23	288	7
TAP	24	0	4
STR	24	0	5
SI_	24	0	5	96	48	7
TAP	24	96	0
STR	24	192	2
SI_	24	192	2	96	48	0
TAP	24	192	3
TAP	24	288	7
STR	25	0	4
SI_	25	0	4	96	48	0
STR	25	0	5
SI_	25	0	5	96	48	7
TAP	25	192	2
TAP	25	192	3
TAP	25	240	2
TAP	25	240	3
BRK	25	288	1
BRK	25	288	4
TAP	26	0	0
STR	26	0	1
SI_	26	0	1	96	48	3
TAP	26	96	4
TAP	26	192	0
STR	26	192	1
SI_	26	192	1	96	48	3
TAP	26	288	4
STR	27	0	6
SI_	27	0	6	96	48	4
TAP	27	0	7
TAP	27	96	3
STR	27	192	6
SI_	27	192	6	96	48	4
TAP	27	192	7
TAP	27	288	3
TAP	28	0	0
STR	28	0	1
SI_	28	0	1	96	48	3
TAP	28	96	4
STR	28	192	6
SI_	28	192	6	96	48	4
TAP	28	192	7
TAP	28	288	3
BST	29	0	0
SI_	29	0	0	96	48	4
BST	29	0	1
SI_	29	0	1	96	48	3
TAP	29	192	6
TAP	29	192	7
TAP	29	240	6
TAP	29	240	7
BRK	29	288	0
BRK	29	288	5
STR	30	0	2
SI_	30	0	2	96	48	7
TAP	30	0	3
TAP	30	96	6
STR	30	192	2
SI_	30	192	2	96	48	7
TAP	30	192	3
TAP	30	288	6
TAP	31	0	4
STR	31	0	5
SI_	31	0	5	96	48	0
TAP	31	96	1
TAP	31	192	4
STR	31	192	5
SI_	31	192	5	96	48	0
TAP	31	288	1
STR	32	0	2
SI_	32	0	2	96	48	7
TAP	32	0	3
TAP	32	96	6
TAP	32	192	4
STR	32	192	5
SI_	32	192	5	96	48	0
TAP	32	288	1
STR	33	0	0
SI_	33	0	0	96	48	3
STR	33	0	7
SI_	33	0	7	96	48	4
TAP	33	192	3
TAP	33	192	4
TAP	33	240	3
TAP	33	240	4
BRK	33	288	2
BRK	33	288	5
TAP	34	0	4
STR	34	0	5
SCR	34	0	5	96	48	0
TAP	34	96	1
TAP	34	192	4
STR	34	192	5
SCR	34	192	5	96	48	0
TAP	34	288	1
STR	35	0	2
SCL	35	0	2	96	48	7
TAP	35	0	3
TAP	35	96	6
STR	35	192	2
SCL	35	192	2	96	48	7
TAP	35	192	3
TAP	35	288	6
STR	36	0	3
SXR	36	0	3	96	240	0
STR	36	0	4
SXL	36	0	4	96	240	7
HLD	37	0	2	576
HLD	37	0	5	576
STR	39	0	2
SUL	39	0	2	96	144	5
STR	39	0	6
SCR	39	0	6	96	144	1
TAP	40	96	1
TAP	40	96	6
BRK	41	0	2
HLD	42	0	5	192
TAP	42	96	4
HLD	42	192	2	192
TAP	42	288	3
HLD	43	0	6	192
TAP	43	96	7
HLD	43	192	1	192
TAP	43	288	0
HLD	44	0	7	96
HLD	44	96	6	96
HLD	44	192	5	96
STR	44	288	4
SI_	44	288	4	96	48	1
STR	45	96	5
SI_	45	96	5	96	48	0
TAP	45	288	3
HLD	46	0	0	96
TAP	46	0	7
HLD	46	96	1	96
HLD	46	192	2	96
STR	46	288	3
SI_	46	288	3	96	48	6
STR	47	96	2
SI_	47	96	2	96	48	7
TAP	47	288	4
HLD	48	0	6	96
TAP	48	0	7
HLD	48	96	4	96
HLD	48	192	3	96
STR	48	288	1
SI_	48	288	1	96	48	4
STR	49	96	5
SI_	49	96	5	96	48	0
TAP	49	288	1
TAP	50	0	0
TAP	50	0	1
TAP	50	48	0
TAP	50	48	1
TAP	50	96	2
TAP	50	96	7
TAP	50	192	6
TAP	50	192	7
TAP	50	240	6
TAP	50	240	7
TAP	50	288	0
TAP	50	288	5
TAP	51	0	1
TAP	51	0	6
TAP	51	48	1
TAP	51	48	6
TAP	51	144	2
TAP	51	144	3
TAP	51	192	2
TAP	51	192	3
TAP	51	288	4
TAP	51	288	5
STR	51	336	4
SCL	51	336	4	96	96	1
STR	51	336	5
SUL	51	336	5	96	96	0
BRK	52	192	6
BRK	52	192	7
TAP	52	288	2
TAP	52	288	6
TAP	52	336	2
HLD	52	336	6	96
TAP	53	48	7
TAP	53	96	0
TAP	53	96	5
TAP	53	192	3
TAP	53	192	6
STR	53	288	4
SI_	53	288	4	96	48	0
STR	53	288	5
SI_	53	288	5	96	48	0
STR	54	96	2
SI_	54	96	2	96	48	7
STR	54	96	3
SI_	54	96	3	96	48	7
TAP	54	288	1
TAP	54	288	5
HLD	54	336	1	96
TAP	54	336	5
TAP	55	48	0
TAP	55	96	2
TAP	55	96	7
TAP	55	192	1
TAP	55	192	4
TAP	55	288	2
TAP	55	288	3
STR	55	336	2
SCL	55	336	2	96	144	5
STR	55	336	3
SUL	55	336	3	96	144	4
TAP	56	288	1
TAP	56	288	5
HLD	56	336	1	96
TAP	56	336	5
TAP	57	48	0
TAP	57	96	2
TAP	57	96	7
TAP	57	192	1
TAP	57	192	4
STR	57	288	2
SI_	57	288	2	96	48	7
STR	57	288	4
SI_	57	288	4	96	48	7
STR	58	96	3
SI_	58	96	3	96	48	0
STR	58	96	5
SI_	58	96	5	96	48	0
TAP	58	288	2
TAP	58	288	6
TAP	58	336	2
HLD	58	336	6	96
TAP	59	48	7
TAP	59	96	0
TAP	59	96	5
TAP	59	192	3
TAP	59	192	6
TAP	59	288	4
STR	59	288	5
SI_	59	288	5	96	48	7
STR	60	0	3
SI_	60	0	3	96	48	1
STR	60	96	4
SI_	60	96	4	96	48	0
TAP	60	288	0
HLD	60	288	7	96
HLD	61	0	6	96
HLD	61	96	5	96
HLD	61	192	4	96
STR	61	288	3
SCL	61	288	3	96	288	4
BRK	63	0	1
BRK	63	0	6
BRK	63	48	1
BRK	63	48	6
BRK	63	96	1
BRK	63	96	6
STR	63	192	0
SI_	63	192	0	96	48	4
STR	63	192	7
SI_	63	192	7	96	48	3
STR	64	0	2
SI_	64	0	2	96	48	0
STR	64	0	4
SI_	64	0	4	96	48	7
STR	64	192	3
SI_	64	192	3	96	48	0
STR	64	192	5
SI_	64	192	5	96	48	7
STR	65	0	2
SI_	65	0	2	96	48	0
STR	65	0	4
SI_	65	0	4	96	48	7
TAP	65	192	6
TAP	65	192	7
TAP	65	240	0
TAP	65	240	5
BRK	65	288	1
BRK	65	288	4
STR	66	0	3
SI_	66	0	3	96	48	0
STR	66	0	5
SI_	66	0	5	96	48	7
STR	66	192	2
SI_	66	192	2	96	48	0
STR	66	192	4
SI_	66	192	4	96	48	7
STR	67	0	3
SI_	67	0	3	96	48	0
STR	67	0	5
SI_	67	0	5	96	48	7
TAP	67	192	0
TAP	67	192	1
TAP	67	240	2
TAP	67	240	7
BRK	67	288	3
BRK	67	288	6
STR	68	0	1
SI_	68	0	1	96	48	7
STR	68	0	3
SI_	68	0	3	96	48	6
STR	68	192	4
SI_	68	192	4	96	48	1
STR	68	192	6
SI_	68	192	6	96	48	0
STR	69	0	1
SI_	69	0	1	96	48	7
STR	69	0	3
SI_	69	0	3	96	48	6
TAP	69	192	6
TAP	69	192	7
TAP	69	240	0
TAP	69	240	5
BRK	69	288	1
BRK	69	288	4
TAP	70	0	0
TAP	70	0	1
TAP	70	48	0
TAP	70	48	1
TAP	70	192	6
TAP	70	192	7
TAP	70	240	6
TAP	70	240	7
TAP	71	48	0
TAP	71	48	7
TAP	71	96	1
TAP	71	96	6
TAP	71	144	2
TAP	71	144	5
TAP	71	192	3
TAP	71	192	4
TAP	71	288	1
TAP	71	288	6
STR	71	336	1
SXR	71	336	1	96	336	4
HLD	71	336	6	432

T_REC_TAP	194
T_REC_BRK	27
T_REC_XTP	0
T_REC_HLD	32
T_REC_XHO	0
T_REC_STR	89
T_REC_BST	2
T_REC_XST	0
T_REC_TTP	0
T_REC_THO	0
T_REC_SLD	91
T_REC_ALL	435
T_NUM_TAP	283
T_NUM_BRK	29
T_NUM_HLD	32
T_NUM_SLD	91
T_NUM_ALL	435
T_JUDGE_TAP	312
T_JUDGE_HLD	127
T_JUDGE_SLD	91
T_JUDGE_ALL	530
TTM_EACHPAIRS	135
TTM_SCR_TAP	141500
TTM_SCR_BRK	75400
TTM_SCR_HLD	32000
TTM_SCR_SLD	136500
TTM_SCR_ALL	385400
TTM_SCR_S	371050
TTM_SCR_SS	382500
TTM_RAT_ACV	10075

