VERSION	0.00.00	1.03.00
FES_MODE	0
BPM_DEF	175.000	175.000	175.000	175.000
MET_DEF	4	4
RESOLUTION	384
CLK_DEF	384
COMPATIBLE_CODE	MA2

BPM	0	0	175.000

HLD	5	336	0	720
HLD	5	336	7	720
HLD	7	336	1	720
HLD	7	336	6	720
HLD	9	336	2	720
HLD	9	336	5	720
HLD	11	336	3	720
HLD	11	336	4	720
TAP	14	0	2
TAP	14	0	3
TAP	14	96	1
TAP	14	192	4
TAP	14	192	5
TAP	14	288	6
TAP	15	0	2
TAP	15	0	3
TAP	15	96	1
TAP	15	192	0
TAP	15	192	7
TAP	16	0	4
TAP	16	0	5
TAP	16	96	6
TAP	16	192	2
TAP	16	192	3
TAP	16	288	1
TAP	17	0	4
TAP	17	0	5
TAP	17	96	6
TAP	17	192	0
TAP	17	192	7
TAP	18	0	2
TAP	18	0	3
TAP	18	96	1
TAP	18	192	4
TAP	18	192	5
TAP	18	288	6
TAP	19	0	2
TAP	19	0	3
TAP	19	96	1
TAP	19	192	0
TAP	19	192	7
BRK	20	0	6
BRK	20	0	7
BRK	20	192	0
BRK	20	192	1
STR	21	0	0
SI_	21	0	0	96	96	3
STR	21	0	7
SI_	21	0	7	96	96	4
TAP	22	0	2
TAP	22	96	2
TAP	22	96	3
TAP	22	192	2
TAP	22	288	2
TAP	22	288	3
TAP	23	0	5
TAP	23	96	4
TAP	23	96	5
TAP	23	192	5
TAP	23	288	4
TAP	23	288	5
TAP	24	0	2
TAP	24	96	1
TAP	24	96	3
TAP	24	192	2
TAP	24	288	1
TAP	24	288	3
TAP	25	0	5
TAP	25	96	4
TAP	25	96	6
TAP	25	192	0
TAP	25	192	7
TAP	26	0	5
TAP	26	96	4
TAP	26	96	5
TAP	26	192	5
TAP	26	288	4
TAP	26	288	5
TAP	27	0	2
TAP	27	96	2
TAP	27	96	3
TAP	27	192	2
TAP	27	288	2
TAP	27	288	3
TAP	28	0	5
TAP	28	96	4
TAP	28	96	6
TAP	28	192	5
TAP	28	288	4
TAP	28	288	6
TAP	29	0	2
TAP	29	96	1
TAP	29	96	3
TAP	29	192	0
TAP	29	192	7
TAP	30	0	6
TAP	30	96	6
TAP	30	96	7
TAP	30	192	6
TAP	30	288	6
TAP	30	288	7
TAP	31	0	1
TAP	31	96	0
TAP	31	96	1
TAP	31	192	1
TAP	31	288	0
TAP	31	288	1
TAP	32	0	6
TAP	32	96	5
TAP	32	96	7
TAP	32	192	6
TAP	32	288	5
TAP	32	288	7
TAP	33	0	3
TAP	33	0	4
TAP	33	96	3
TAP	33	96	4
TAP	33	192	1
TAP	33	192	6
TAP	33	288	1
TAP	33	288	6
TAP	34	0	1
TAP	34	96	0
TAP	34	96	1
TAP	34	192	1
TAP	34	288	0
TAP	34	288	1
TAP	35	0	6
TAP	35	96	6
TAP	35	96	7
TAP	35	192	6
TAP	35	288	6
TAP	35	288	7
TAP	36	0	1
TAP	36	96	0
TAP	36	96	2
TAP	36	192	1
TAP	36	288	0
TAP	36	288	2
HLD	37	0	4	1536
STR	37	0	5
SCR	37	0	5	96	1056	3
TAP	42	0	4
TAP	42	96	4
TAP	42	192	3
TAP	42	288	3
TAP	43	0	5
TAP	43	96	4
TAP	43	96	5
TAP	43	192	2
TAP	43	288	2
TAP	43	288	3
TAP	44	0	1
TAP	44	96	0
TAP	44	192	7
TAP	44	288	6
HLD	45	0	5	96
TAP	45	96	4
TAP	45	192	3
TAP	45	192	6
TAP	46	0	6
TAP	46	96	7
TAP	46	192	0
TAP	46	288	1
HLD	47	0	2	96
TAP	47	96	3
TAP	47	192	1
TAP	47	192	4
HLD	48	0	5	96
TAP	48	96	4
TAP	48	192	3
TAP	48	192	6
TAP	48	288	3
TAP	48	288	6
HLD	49	0	2	96
TAP	49	96	3
TAP	49	192	1
TAP	49	192	4
TAP	49	288	1
TAP	49	288	4
TAP	50	0	0
TAP	50	0	7
TAP	50	96	1
TAP	50	96	6
TAP	50	192	2
TAP	50	192	5
TAP	50	288	3
TAP	50	288	4
BST	51	0	3
SCL	51	0	3	96	288	0
BST	51	0	4
SCR	51	0	4	96	288	7
HLD	53	0	2	96
TAP	53	96	3
HLD	53	192	5	96
TAP	53	288	4
HLD	54	0	1	96
TAP	54	96	2
HLD	54	192	6	96
TAP	54	288	5
HLD	55	0	1	96
TAP	55	96	0
HLD	55	192	6	96
TAP	55	288	7
STR	56	0	0
SF_	56	0	0	96	144	4
HLD	57	0	6	96
TAP	57	96	7
HLD	57	192	1	96
TAP	57	288	0
HLD	58	0	5	96
TAP	58	96	6
HLD	58	192	2	96
TAP	58	288	1
HLD	59	0	5	96
TAP	59	96	4
HLD	59	192	2	96
TAP	59	288	3
STR	60	0	4
SI_	60	0	4	96	96	7
STR	60	192	3
SI_	60	192	3	96	96	0
STR	61	0	4
SUR	61	0	4	96	480	7
TAP	63	0	1
TAP	63	0	6
TAP	63	48	1
TAP	63	48	6
BRK	63	96	1
BRK	63	96	6
TAP	64	0	4
TAP	64	0	5
TAP	64	96	6
TAP	64	192	2
TAP	64	192	3
TAP	64	288	1
TAP	65	0	4
TAP	65	0	5
TAP	65	96	6
TAP	65	192	0
TAP	65	192	7
TAP	65	288	0
TAP	65	288	7
TAP	66	0	2
TAP	66	0	3
TAP	66	96	1
TAP	66	192	4
TAP	66	192	5
TAP	66	288	6
TAP	67	0	2
TAP	67	0	3
TAP	67	96	1
TAP	67	192	0
TAP	67	192	7
TAP	67	288	0
TAP	67	288	7
TAP	68	0	4
TAP	68	0	5
TAP	68	96	6
TAP	68	192	2
TAP	68	192	3
TAP	68	288	1
TAP	69	0	4
TAP	69	0	5
TAP	69	96	6
TAP	69	192	0
TAP	69	192	7
TAP	69	288	0
TAP	69	288	7
BRK	70	0	0
BRK	70	0	1
BRK	70	192	6
BRK	70	192	7
STR	71	0	0
SXL	71	0	0	96	672	3
STR	71	0	7
SXR	71	0	7	96	672	4

T_REC_TAP	220
T_REC_BRK	10
T_REC_XTP	0
T_REC_HLD	25
T_REC_XHO	0
T_REC_STR	9
T_REC_BST	2
T_REC_XST	0
T_REC_TTP	0
T_REC_THO	0
T_REC_SLD	11
T_REC_ALL	277
T_NUM_TAP	229
T_NUM_BRK	12
T_NUM_HLD	25
T_NUM_SLD	11
T_NUM_ALL	277
T_JUDGE_TAP	241
T_JUDGE_HLD	184
T_JUDGE_SLD	11
T_JUDGE_ALL	436
TTM_EACHPAIRS	86
TTM_SCR_TAP	114500
TTM_SCR_BRK	31200
TTM_SCR_HLD	25000
TTM_SCR_SLD	16500
TTM_SCR_ALL	187200
TTM_SCR_S	180450
TTM_SCR_SS	186000
TTM_RAT_ACV	10064

