VERSION	0.00.00	1.03.00
FES_MODE	0
BPM_DEF	175.000	175.000	175.000	175.000
MET_DEF	4	4
RESOLUTION	384
CLK_DEF	384
COMPATIBLE_CODE	MA2

BPM	0	0	175.000

TAP	6	0	0
TAP	6	192	0
TAP	7	0	1
TAP	7	96	1
TAP	7	192	1
TAP	8	0	2
TAP	8	192	2
HLD	9	0	3	192
HLD	9	0	4	192
TAP	10	0	4
TAP	10	192	4
TAP	11	0	5
TAP	11	96	5
TAP	11	192	5
TAP	12	0	6
TAP	12	192	6
HLD	13	0	0	192
HLD	13	0	7	192
TAP	14	0	0
TAP	14	0	1
TAP	14	192	6
TAP	14	192	7
TAP	15	0	0
TAP	15	0	1
TAP	15	192	0
TAP	15	192	7
TAP	16	0	6
TAP	16	0	7
TAP	16	192	0
TAP	16	192	1
TAP	17	0	6
TAP	17	0	7
TAP	17	192	0
TAP	17	192	7
TAP	18	0	1
TAP	18	0	7
TAP	18	192	0
TAP	18	192	6
TAP	19	0	1
TAP	19	0	7
TAP	19	192	0
TAP	19	192	7
TAP	20	0	0
TAP	20	0	7
TAP	20	192	1
TAP	20	192	6
TAP	21	0	0
TAP	21	96	7
BRK	21	192	0
TAP	22	0	0
TAP	22	192	0
TAP	23	0	1
TAP	23	192	1
TAP	24	0	2
TAP	24	192	2
TAP	25	0	3
TAP	25	96	4
TAP	25	192	3
TAP	26	0	4
TAP	26	192	4
TAP	27	0	5
TAP	27	192	5
TAP	28	0	6
TAP	28	192	6
TAP	29	0	7
TAP	29	96	0
BRK	29	192	7
TAP	30	0	7
TAP	30	192	7
TAP	31	0	6
TAP	31	192	6
TAP	32	0	5
TAP	32	192	5
TAP	33	0	4
TAP	33	96	3
TAP	33	192	4
TAP	34	0	3
TAP	34	192	3
TAP	35	0	2
TAP	35	192	2
TAP	36	0	1
TAP	36	96	1
TAP	36	192	0
TAP	36	288	0
BRK	37	0	0
BRK	37	0	7
STR	39	0	0
SI_	39	0	0	96	288	3
STR	39	0	7
SI_	39	0	7	96	288	4
TAP	42	0	3
TAP	42	192	4
TAP	43	0	3
TAP	43	96	3
TAP	43	192	4
TAP	43	288	4
TAP	44	0	3
TAP	44	96	3
TAP	44	192	3
TAP	45	0	2
TAP	45	96	2
TAP	45	192	2
TAP	45	192	3
TAP	46	0	1
TAP	46	96	1
TAP	46	192	1
TAP	47	0	0
TAP	47	96	0
TAP	47	192	0
TAP	47	192	7
TAP	48	0	7
TAP	48	96	7
TAP	48	192	7
TAP	49	0	6
TAP	49	96	6
TAP	49	192	6
TAP	49	192	7
TAP	50	0	5
TAP	50	96	5
TAP	50	192	4
TAP	50	288	4
STR	51	0	3
SI_	51	0	3	96	288	0
STR	51	0	4
SI_	51	0	4	96	288	7
TAP	53	0	0
TAP	53	96	0
TAP	53	192	1
TAP	53	288	1
TAP	54	0	2
TAP	54	96	2
TAP	54	192	2
TAP	54	192	3
TAP	55	0	4
TAP	55	96	4
TAP	55	192	5
TAP	55	288	5
HLD	56	0	6	192
TAP	57	0	7
TAP	57	96	7
TAP	57	192	6
TAP	57	288	6
TAP	58	0	5
TAP	58	96	5
TAP	58	192	4
TAP	58	192	5
TAP	59	0	3
TAP	59	96	3
TAP	59	192	2
TAP	59	288	2
HLD	60	0	1	192
STR	61	0	0
SI_	61	0	0	96	288	4
BRK	63	0	0
BRK	63	0	7
TAP	64	0	6
TAP	64	0	7
TAP	64	192	0
TAP	64	192	1
TAP	65	0	6
TAP	65	0	7
TAP	65	192	0
TAP	65	192	7
TAP	66	0	0
TAP	66	0	1
TAP	66	192	6
TAP	66	192	7
TAP	67	0	0
TAP	67	0	1
TAP	67	192	0
TAP	67	192	7
TAP	68	0	0
TAP	68	0	6
TAP	68	192	1
TAP	68	192	7
TAP	69	0	0
TAP	69	0	6
TAP	69	192	0
TAP	69	192	7
TAP	70	0	0
TAP	70	0	7
TAP	70	192	1
TAP	70	192	6
TAP	71	0	7
TAP	71	96	0
TAP	71	192	7
STR	71	288	0
SI_	71	288	0	96	288	4

T_REC_TAP	164
T_REC_BRK	6
T_REC_XTP	0
T_REC_HLD	6
T_REC_XHO	0
T_REC_STR	6
T_REC_BST	0
T_REC_XST	0
T_REC_TTP	0
T_REC_THO	0
T_REC_SLD	6
T_REC_ALL	188
T_NUM_TAP	170
T_NUM_BRK	6
T_NUM_HLD	6
T_NUM_SLD	6
T_NUM_ALL	188
T_JUDGE_TAP	176
T_JUDGE_HLD	24
T_JUDGE_SLD	6
T_JUDGE_ALL	206
TTM_EACHPAIRS	39
TTM_SCR_TAP	85000
TTM_SCR_BRK	15600
TTM_SCR_HLD	6000
TTM_SCR_SLD	9000
TTM_SCR_ALL	115600
TTM_SCR_S	111550
TTM_SCR_SS	115000
TTM_RAT_ACV	10052

