VERSION	0.00.00	1.03.00
FES_MODE	0
BPM_DEF	180.000	180.000	180.000	180.000
MET_DEF	4	4
RESOLUTION	384
CLK_DEF	384
COMPATIBLE_CODE	MA2

BPM	0	0	180.000

TAP	1	144	2
TAP	1	192	2
STR	1	288	1
SCR	1	288	1	96	672	7
HLD	1	336	1	1200
HLD	4	0	6	384
TAP	5	144	5
TAP	5	192	5
STR	5	288	6
SCL	5	288	6	96	672	0
HLD	5	336	6	720
HLD	8	96	5	144
HLD	8	240	6	144
HLD	9	0	7	288
TAP	9	144	4
TAP	9	192	4
TAP	9	288	1
HLD	9	336	1	288
TAP	10	48	6
TAP	10	144	6
TAP	10	240	0
TAP	11	0	3
TAP	11	0	6
HLD	11	240	1	96
HLD	11	240	4	96
TAP	12	0	1
TAP	12	0	4
TAP	12	96	3
TAP	12	96	6
TAP	12	144	3
HLD	12	144	6	96
TAP	12	240	7
TAP	13	0	1
TAP	13	0	4
TAP	13	144	3
TAP	13	144	6
HLD	13	192	3	96
HLD	13	192	6	96
HLD	13	336	1	768
STR	13	336	4
SI_	13	336	4	96	48	0
STR	14	144	0
SI_	14	144	0	96	48	5
STR	14	336	5
SI_	14	336	5	96	48	2
STR	15	144	2
SI_	15	144	2	96	48	7
STR	15	336	7
SCL	15	336	7	96	240	0
TAP	16	48	3
TAP	16	96	2
HLD	16	144	1	240
TAP	17	0	4
TAP	17	96	4
TAP	17	192	4
TAP	17	240	3
TAP	17	240	5
TAP	17	288	2
TAP	17	288	6
TAP	17	336	1
TAP	17	336	7
TAP	18	0	0
HLD	18	48	0	96
TAP	18	144	2
HLD	18	192	2	96
TAP	18	288	4
HLD	18	336	4	96
TAP	19	48	6
HLD	19	96	6	96
TAP	19	192	7
TAP	19	240	6
TAP	19	288	0
TAP	19	288	5
TAP	20	0	7
HLD	20	48	7	96
TAP	20	144	5
HLD	20	192	5	96
TAP	20	288	3
HLD	20	336	3	96
TAP	21	48	1
HLD	21	96	1	96
TAP	21	192	0
TAP	21	240	1
TAP	21	288	2
TAP	21	288	7
TAP	22	0	5
HLD	22	48	5	96
TAP	22	144	7
HLD	22	192	7	96
TAP	22	288	1
HLD	22	336	1	96
TAP	23	48	3
HLD	23	96	3	96
TAP	23	192	1
TAP	23	240	0
TAP	23	288	2
TAP	23	288	7
TAP	24	0	1
TAP	24	48	2
TAP	24	96	3
TAP	24	144	1
HLD	24	144	4	432
TAP	25	0	6
TAP	25	96	6
TAP	25	192	6
TAP	25	240	7
BRK	25	288	0
BRK	25	288	5
STR	26	0	7
SCL	26	0	7	96	192	3
SCR	26	0	7	96	192	3
TAP	27	0	1
HLD	27	0	7	144
HLD	27	144	4	144
TAP	27	288	5
STR	28	0	0
SI_	28	0	0	96	48	5
STR	28	48	7
SI_	28	48	7	96	48	2
TAP	28	240	5
TAP	28	288	6
TAP	28	336	7
TAP	29	0	0
TAP	29	96	4
TAP	29	192	3
TAP	29	288	2
TAP	29	288	5
TAP	29	336	1
TAP	29	336	6
HLD	30	0	0	144
TAP	30	0	7
HLD	30	144	3	144
HLD	30	288	5	96
HLD	31	0	7	144
HLD	31	144	2	144
TAP	31	288	4
TAP	32	0	6
STR	32	48	6
SI_	32	48	6	96	48	2
TAP	32	240	2
TAP	32	288	1
TAP	32	336	0
TAP	33	0	7
TAP	33	96	4
TAP	33	192	1
TAP	33	288	2
TAP	33	336	3
TAP	34	0	1
HLD	34	0	4	96
HLD	34	96	5	96
TAP	34	192	6
HLD	34	240	6	96
STR	34	336	7
SI_	34	336	7	96	48	3
HLD	35	48	6	432
TAP	35	144	2
TAP	35	192	2
TAP	35	240	2
TAP	35	336	1
HLD	36	0	1	96
TAP	36	192	4
TAP	36	192	5
TAP	36	264	3
TAP	36	264	4
TAP	36	336	2
TAP	36	336	3
TAP	37	0	2
STR	37	0	3
SF_	37	0	3	96	96	7
TAP	37	288	2
HLD	37	336	4	144
HLD	38	0	3	288
TAP	38	144	4
HLD	38	288	2	96
HLD	39	0	1	96
TAP	39	96	0
HLD	39	144	0	96
HLD	39	240	7	96
STR	39	336	6
SF_	39	336	6	96	240	2
TAP	41	0	2
TAP	41	0	3
TAP	41	96	4
TAP	41	96	5
TAP	41	192	0
TAP	41	192	7
TAP	41	240	1
TAP	41	240	6
BRK	41	288	2
BRK	41	288	5
TAP	42	0	0
TAP	42	96	1
TAP	42	96	7
TAP	42	144	0
TAP	42	240	5
TAP	42	240	7
TAP	42	288	4
TAP	43	0	0
TAP	43	96	2
TAP	43	96	7
TAP	43	144	3
TAP	43	240	3
TAP	43	240	7
TAP	43	288	5
TAP	44	0	4
TAP	44	96	0
TAP	44	96	6
STR	44	144	2
SI_	44	144	2	96	48	7
TAP	44	240	6
TAP	44	288	6
TAP	45	0	7
TAP	45	48	5
TAP	45	72	4
TAP	45	96	5
TAP	45	144	2
TAP	45	192	0
TAP	45	240	7
TAP	45	288	1
TAP	45	288	6
TAP	46	0	7
TAP	46	96	0
TAP	46	96	6
TAP	46	144	7
TAP	46	240	0
TAP	46	240	2
TAP	46	288	3
TAP	47	0	7
TAP	47	96	0
TAP	47	96	5
TAP	47	144	4
TAP	47	240	0
TAP	47	240	5
TAP	47	288	2
TAP	47	336	1
TAP	48	0	2
TAP	48	48	3
TAP	48	96	1
TAP	48	96	4
STR	48	144	5
SI_	48	144	5	96	48	0
TAP	48	240	1
TAP	48	288	1
TAP	49	0	5
TAP	49	48	2
TAP	49	72	3
TAP	49	96	2
TAP	49	144	5
TAP	49	192	3
TAP	49	192	4
TAP	49	240	2
TAP	49	240	5
TAP	49	288	1
TAP	49	288	6
TAP	50	0	0
TAP	50	0	7
TAP	50	96	1
TAP	50	96	3
TAP	50	144	2
TAP	50	240	4
TAP	50	240	6
TAP	50	288	5
TAP	50	336	3
TAP	51	0	2
TAP	51	48	1
TAP	51	96	0
TAP	51	96	7
TAP	51	192	2
TAP	51	192	3
TAP	51	264	3
TAP	51	264	4
TAP	51	336	4
TAP	51	336	5
HLD	52	0	4	96
HLD	52	0	5	384
TAP	52	192	1
TAP	52	264	2
TAP	52	336	3
STR	53	0	3
SUL	53	0	3	96	192	0
TAP	53	96	4
TAP	53	192	5
TAP	53	288	6
TAP	54	0	0
TAP	54	0	7
TAP	54	96	4
TAP	54	96	6
TAP	54	192	1
TAP	54	192	3
TAP	54	288	0
TAP	54	288	7
TAP	55	0	2
TAP	55	0	6
TAP	55	48	2
TAP	55	48	6
TAP	55	96	1
TAP	55	96	5
TAP	55	144	1
TAP	55	144	5
TAP	55	192	0
TAP	55	192	4
TAP	55	240	0
TAP	55	240	4
TAP	55	288	3
TAP	55	288	7
TAP	55	336	3
TAP	55	336	7
TAP	56	0	0
TAP	56	0	4
TAP	56	48	1
TAP	56	48	5
TAP	56	96	2
TAP	56	96	6
TAP	56	144	3
TAP	56	144	7
TAP	56	192	0
TAP	56	192	4
TAP	56	240	3
TAP	56	240	7
TAP	56	288	2
TAP	56	288	6
TAP	56	336	1
TAP	56	336	5
TAP	57	0	0
TAP	57	24	7
TAP	57	48	0
TAP	57	72	7
TAP	57	96	0
TAP	57	120	7
TAP	57	144	0
TAP	57	168	7
STR	57	192	0
SF_	57	192	0	96	48	4
BRK	57	288	0
STR	58	48	6
SI_	58	48	6	96	48	3
TAP	58	96	6
STR	58	192	0
SI_	58	192	0	96	48	4
TAP	58	240	0
STR	58	336	7
SI_	58	336	7	96	48	3
TAP	59	0	7
STR	59	96	1
SI_	59	96	1	96	48	4
TAP	59	144	1
TAP	59	192	5
TAP	59	240	6
TAP	59	288	7
TAP	59	336	0
TAP	59	336	2
STR	60	48	1
SI_	60	48	1	96	48	4
TAP	60	96	1
STR	60	192	7
SI_	60	192	7	96	48	3
TAP	60	240	7
STR	60	336	0
SI_	60	336	0	96	48	4
TAP	61	0	0
STR	61	96	6
SI_	61	96	6	96	48	3
TAP	61	144	6
TAP	61	192	2
TAP	61	240	1
TAP	61	288	0
TAP	61	336	5
TAP	61	336	7
STR	62	48	6
SI_	62	48	6	96	48	1
TAP	62	96	6
STR	62	192	4
SI_	62	192	4	96	48	1
TAP	62	240	4
STR	62	336	7
SI_	62	336	7	96	48	2
TAP	63	0	7
STR	63	96	5
SI_	63	96	5	96	48	2
TAP	63	144	5
TAP	63	192	7
TAP	63	240	6
TAP	63	288	5
TAP	63	336	1
TAP	63	336	4
STR	64	48	1
SI_	64	48	1	96	48	6
TAP	64	96	1
STR	64	192	3
SI_	64	192	3	96	48	6
TAP	64	240	3
STR	64	336	0
SI_	64	336	0	96	48	5
TAP	65	0	0
STR	65	96	2
SI_	65	96	2	96	48	5
TAP	65	144	2
TAP	65	192	0
TAP	65	240	1
TAP	65	288	2
TAP	65	336	3
TAP	65	336	6
STR	66	48	7
SUL	66	48	7	96	48	3
TAP	66	96	7
STR	66	192	1
SUL	66	192	1	96	48	5
TAP	66	240	1
STR	66	336	3
SUL	66	336	3	96	48	7
TAP	67	0	3
STR	67	96	5
SUL	67	96	5	96	48	1
TAP	67	144	5
TAP	67	192	6
TAP	67	240	7
TAP	67	288	0
TAP	67	336	1
TAP	67	336	7
STR	68	48	0
SUR	68	48	0	96	48	4
TAP	68	96	0
STR	68	192	6
SUR	68	192	6	96	48	2
TAP	68	240	6
STR	68	336	4
SUR	68	336	4	96	48	0
TAP	69	0	4
STR	69	96	2
SUR	69	96	2	96	48	6
TAP	69	144	2
TAP	69	192	1
TAP	69	240	0
TAP	69	288	7
TAP	69	336	0
STR	69	336	6
SCL	69	336	6	96	96	3
STR	70	48	3
SCL	70	48	3	96	96	0
STR	70	144	0
SCL	70	144	0	96	96	5
STR	70	240	5
SCL	70	240	5	96	96	2
STR	70	336	2
SCL	70	336	2	96	96	7
STR	71	48	7
SCL	71	48	7	96	96	4
STR	71	144	4
SCL	71	144	4	96	96	1
STR	71	240	1
SCL	71	240	1	96	96	6
TAP	71	336	6
TAP	72	48	3
TAP	72	96	4
TAP	72	144	5
TAP	72	192	6
TAP	72	240	7
TAP	72	288	0
TAP	72	336	1
TAP	73	0	3
TAP	73	24	4
TAP	73	48	3
TAP	73	72	4
TAP	73	96	3
TAP	73	120	4
TAP	73	144	3
TAP	73	168	4
STR	73	192	3
SF_	73	192	3	96	48	7
BRK	73	288	3
STR	74	48	1
SCR	74	48	1	96	48	4
TAP	74	96	0
STR	74	192	0
SCL	74	192	0	96	48	5
TAP	74	240	1
STR	74	336	4
SCL	74	336	4	96	48	1
TAP	75	0	5
STR	75	96	5
SCR	75	96	5	96	48	0
TAP	75	144	4
TAP	75	192	2
TAP	75	240	1
TAP	75	288	0
TAP	75	336	2
TAP	75	336	7
STR	76	48	6
SCL	76	48	6	96	48	3
TAP	76	96	7
STR	76	192	7
SCR	76	192	7	96	48	2
TAP	76	240	6
STR	76	336	3
SCR	76	336	3	96	48	6
TAP	77	0	2
STR	77	96	2
SCL	77	96	2	96	48	7
TAP	77	144	3
TAP	77	192	5
TAP	77	240	6
TAP	77	288	7
TAP	77	336	0
TAP	77	336	5
STR	78	48	1
SI_	78	48	1	96	48	5
TAP	78	96	4
STR	78	192	7
SI_	78	192	7	96	48	3
TAP	78	240	4
STR	78	336	1
SI_	78	336	1	96	48	5
TAP	79	0	4
STR	79	96	7
SI_	79	96	7	96	48	3
TAP	79	144	4
TAP	79	192	2
TAP	79	240	1
TAP	79	288	0
TAP	79	336	5
TAP	79	336	7
STR	80	48	6
SI_	80	48	6	96	48	2
TAP	80	96	3
STR	80	192	0
SI_	80	192	0	96	48	4
TAP	80	240	3
STR	80	336	6
SI_	80	336	6	96	48	2
TAP	81	0	3
STR	81	96	0
SI_	81	96	0	96	48	4
TAP	81	144	3
TAP	81	192	5
TAP	81	240	6
TAP	81	288	7
TAP	81	336	0
TAP	81	336	2
STR	82	48	6
SI_	82	48	6	96	48	2
TAP	82	96	7
STR	82	192	3
SI_	82	192	3	96	48	7
TAP	82	240	4
STR	82	336	5
SI_	82	336	5	96	48	1
TAP	83	0	4
STR	83	96	2
SI_	83	96	2	96	48	6
TAP	83	144	3
TAP	83	192	4
TAP	83	240	5
TAP	83	288	6
TAP	83	336	0
TAP	83	336	7
STR	84	48	1
SI_	84	48	1	96	48	5
TAP	84	96	0
STR	84	192	4
SI_	84	192	4	96	48	0
TAP	84	240	3
STR	84	336	2
SI_	84	336	2	96	48	6
TAP	85	0	3
STR	85	96	5
SI_	85	96	5	96	48	1
TAP	85	144	4
TAP	85	192	3
TAP	85	240	2
TAP	85	288	1
TAP	85	336	0
TAP	85	336	7
STR	86	48	6
SI_	86	48	6	96	72	2
TAP	86	96	5
TAP	86	96	7
BRK	86	144	6
STR	86	240	0
SI_	86	240	0	96	48	4
TAP	86	288	1
TAP	86	288	7
BRK	86	336	0
STR	87	48	7
SI_	87	48	7	96	48	3
TAP	87	96	0
TAP	87	96	6
BRK	87	144	7
STR	87	240	1
SI_	87	240	1	96	48	5
TAP	87	288	0
TAP	87	288	2
BRK	87	336	1
TAP	88	48	6
HLD	88	48	7	336
TAP	88	96	6
TAP	88	144	5
TAP	88	192	5
TAP	88	240	4
TAP	88	288	4
TAP	88	336	3
TAP	89	0	3
HLD	89	96	1	1056
TAP	89	144	0
TAP	89	192	7
TAP	89	240	6
HLD	89	288	5	144
BST	90	96	6
SSL	90	96	6	96	576	2

T_REC_TAP	387
T_REC_BRK	10
T_REC_XTP	0
T_REC_HLD	50
T_REC_XHO	0
T_REC_STR	79
T_REC_BST	1
T_REC_XST	0
T_REC_TTP	0
T_REC_THO	0
T_REC_SLD	81
T_REC_ALL	608
T_NUM_TAP	466
T_NUM_BRK	11
T_NUM_HLD	50
T_NUM_SLD	81
T_NUM_ALL	608
T_JUDGE_TAP	477
T_JUDGE_HLD	226
T_JUDGE_SLD	81
T_JUDGE_ALL	784
TTM_EACHPAIRS	90
TTM_SCR_TAP	233000
TTM_SCR_BRK	28600
TTM_SCR_HLD	50000
TTM_SCR_SLD	121500
TTM_SCR_ALL	433100
TTM_SCR_S	419050
TTM_SCR_SS	432000
TTM_RAT_ACV	10025

