VERSION	0.00.00	1.03.00
FES_MODE	0
BPM_DEF	180.000	180.000	180.000	180.000
MET_DEF	4	4
RESOLUTION	384
CLK_DEF	384
COMPATIBLE_CODE	MA2

BPM	0	0	180.000

TAP	2	0	3
TAP	2	0	4
TAP	2	96	3
TAP	2	192	2
TAP	2	288	1
TAP	3	0	0
TAP	3	96	7
HLD	3	144	7	912
STR	4	0	1
SI_	4	0	1	96	192	5
STR	5	0	4
SI_	5	0	4	96	192	0
TAP	6	0	0
TAP	6	0	7
TAP	6	96	7
TAP	6	192	6
TAP	6	288	5
TAP	7	0	4
TAP	7	96	3
HLD	7	144	3	912
STR	8	0	5
SI_	8	0	5	96	192	1
STR	9	0	0
SI_	9	0	0	96	192	4
TAP	10	0	3
TAP	10	0	4
TAP	10	96	2
TAP	10	144	3
TAP	10	192	2
TAP	10	288	5
TAP	10	336	4
TAP	11	0	5
TAP	11	96	1
HLD	11	144	1	624
STR	12	0	0
SCL	12	0	0	96	192	4
HLD	13	0	3	192
TAP	13	192	2
TAP	14	0	3
TAP	14	0	4
TAP	14	96	5
TAP	14	144	4
TAP	14	192	5
TAP	14	288	2
TAP	14	336	3
TAP	15	0	2
TAP	15	96	6
HLD	15	144	6	624
STR	16	0	7
SCR	16	0	7	96	192	3
HLD	17	0	4	192
BRK	17	192	5
TAP	18	0	0
TAP	18	0	1
TAP	18	96	0
TAP	18	96	1
TAP	18	192	6
TAP	18	240	6
TAP	18	336	4
TAP	19	0	4
TAP	19	96	3
TAP	19	144	3
TAP	19	240	1
TAP	19	288	1
TAP	20	0	6
TAP	20	0	7
TAP	20	96	6
TAP	20	96	7
TAP	20	192	1
TAP	20	240	1
TAP	20	336	3
TAP	21	0	3
TAP	21	96	4
TAP	21	144	4
TAP	21	240	6
TAP	21	288	6
TAP	22	0	0
TAP	22	0	2
TAP	22	96	0
TAP	22	96	2
TAP	22	192	6
TAP	22	240	4
TAP	22	336	5
TAP	23	0	3
TAP	23	96	4
TAP	23	144	2
TAP	23	240	3
TAP	23	288	1
TAP	24	0	5
TAP	24	0	7
TAP	24	96	5
TAP	24	96	7
TAP	24	192	1
TAP	24	240	3
TAP	24	336	2
TAP	25	0	4
TAP	25	96	3
TAP	25	144	5
TAP	25	240	4
TAP	25	288	6
STR	26	0	0
SXL	26	0	0	96	192	4
TAP	26	0	7
HLD	27	0	5	144
HLD	27	144	6	144
TAP	27	288	7
TAP	28	0	0
STR	28	0	7
SXR	28	0	7	96	192	3
HLD	29	0	2	144
HLD	29	144	1	144
TAP	29	288	0
HLD	30	0	0	96
HLD	30	0	6	96
TAP	30	144	0
TAP	30	144	6
TAP	30	288	3
HLD	31	0	1	96
HLD	31	0	7	96
TAP	31	144	1
TAP	31	144	7
TAP	31	288	4
STR	32	0	0
SXL	32	0	0	96	288	3
STR	32	0	6
SXR	32	0	6	96	288	3
TAP	33	144	2
TAP	33	144	4
TAP	33	192	2
TAP	33	192	4
TAP	33	288	0
TAP	33	288	6
HLD	34	0	7	96
HLD	34	96	1	96
TAP	34	192	3
TAP	34	240	3
HLD	34	336	0	96
HLD	35	48	6	96
TAP	35	144	4
TAP	35	192	4
TAP	35	288	0
TAP	35	288	7
TAP	36	0	2
TAP	36	0	5
TAP	36	192	3
TAP	36	192	4
TAP	36	288	1
TAP	36	288	6
STR	37	0	0
SI_	37	0	0	96	96	3
STR	37	0	7
SI_	37	0	7	96	96	4
HLD	38	0	1	144
HLD	38	144	0	144
TAP	38	288	7
TAP	39	0	6
TAP	39	0	7
TAP	39	144	2
TAP	39	144	5
TAP	39	240	1
TAP	39	240	6
STR	39	336	0
SXL	39	336	0	96	240	3
STR	39	336	7
SXR	39	336	7	96	240	4
TAP	41	0	3
TAP	41	0	4
TAP	41	96	6
TAP	41	144	1
TAP	41	192	6
TAP	41	240	1
BRK	41	288	0
BRK	41	288	7
TAP	42	0	5
TAP	42	96	1
TAP	42	96	7
TAP	42	240	0
TAP	42	288	1
TAP	42	288	7
TAP	43	0	2
TAP	43	96	0
TAP	43	96	6
TAP	43	240	7
TAP	43	288	0
TAP	43	288	6
TAP	44	0	6
TAP	44	96	2
TAP	44	96	4
TAP	44	240	3
TAP	44	288	2
TAP	44	288	4
TAP	45	0	1
TAP	45	96	3
TAP	45	96	5
TAP	45	240	4
TAP	45	288	3
TAP	45	288	5
TAP	46	0	4
TAP	46	96	2
TAP	46	96	7
TAP	46	240	0
TAP	46	240	1
TAP	46	288	2
TAP	46	288	7
TAP	47	0	3
TAP	47	96	0
TAP	47	96	5
TAP	47	240	6
TAP	47	240	7
TAP	47	288	0
TAP	47	288	5
TAP	48	0	7
TAP	48	96	1
TAP	48	96	4
TAP	48	240	2
TAP	48	240	3
TAP	48	288	1
TAP	48	288	4
TAP	49	0	0
TAP	49	96	3
TAP	49	96	6
TAP	49	240	4
TAP	49	240	5
TAP	49	288	3
TAP	49	288	6
HLD	50	0	5	96
TAP	50	96	7
TAP	50	192	1
TAP	50	240	0
TAP	50	288	1
HLD	51	0	2	96
TAP	51	96	0
TAP	51	192	6
TAP	51	240	7
TAP	51	288	6
HLD	52	0	1	96
TAP	52	96	3
TAP	52	192	5
TAP	52	240	4
TAP	52	288	5
HLD	53	0	6	96
TAP	53	96	4
TAP	53	192	2
TAP	53	240	3
TAP	53	288	2
STR	54	0	6
SCL	54	0	6	96	144	3
STR	54	0	7
SCR	54	0	7	96	144	2
STR	55	0	0
SCL	55	0	0	96	144	5
STR	55	0	1
SCR	55	0	1	96	144	4
TAP	56	0	6
TAP	56	0	7
TAP	56	96	3
TAP	56	144	4
TAP	56	192	2
TAP	56	240	5
TAP	56	288	2
TAP	56	336	5
TAP	57	0	1
TAP	57	48	6
TAP	57	96	1
TAP	57	144	6
BRK	57	192	0
BRK	57	192	7
TAP	58	0	6
TAP	58	0	7
BRK	58	96	1
TAP	58	96	3
TAP	58	192	5
BRK	58	240	4
TAP	58	288	5
BST	59	0	0
SXL	59	0	0	96	192	3
HLD	59	0	7	288
TAP	60	0	4
TAP	60	0	5
TAP	60	96	0
TAP	60	96	6
TAP	60	192	2
TAP	60	240	3
TAP	60	288	2
STR	61	0	4
SUR	61	0	4	96	144	1
STR	61	0	5
SCR	61	0	5	96	144	0
TAP	62	0	2
TAP	62	0	3
BRK	62	96	5
TAP	62	96	7
TAP	62	192	1
BRK	62	240	0
TAP	62	288	1
HLD	63	0	3	288
BST	63	0	4
SXL	63	0	4	96	192	7
TAP	64	0	0
TAP	64	0	1
TAP	64	96	2
TAP	64	96	4
TAP	64	192	6
TAP	64	240	7
TAP	64	288	6
STR	65	0	0
SUR	65	0	0	96	144	5
STR	65	0	1
SCR	65	0	1	96	144	4
TAP	66	0	6
TAP	66	0	7
BRK	66	96	1
TAP	66	96	3
TAP	66	192	5
BRK	66	240	4
TAP	66	288	5
HLD	67	0	6	288
BST	67	0	7
SXL	67	0	7	96	192	2
TAP	68	0	0
TAP	68	0	1
TAP	68	96	5
TAP	68	96	7
TAP	68	192	2
TAP	68	240	3
TAP	68	288	2
STR	69	0	0
SCL	69	0	0	96	144	5
STR	69	0	1
SUL	69	0	1	96	144	4
TAP	70	0	2
TAP	70	0	3
BRK	70	96	5
TAP	70	96	7
TAP	70	192	1
BRK	70	240	0
TAP	70	288	1
HLD	71	0	2	288
BST	71	0	3
SXL	71	0	3	96	192	6
TAP	72	0	4
TAP	72	0	5
TAP	72	96	1
TAP	72	96	3
TAP	72	192	6
TAP	72	240	7
TAP	72	288	6
STR	73	0	4
SCL	73	0	4	96	144	1
STR	73	0	5
SUL	73	0	5	96	144	0
TAP	74	0	6
TAP	74	0	7
BRK	74	96	1
TAP	74	144	0
TAP	74	192	2
BRK	74	240	6
TAP	74	288	7
TAP	74	336	5
BRK	75	0	2
TAP	75	96	2
TAP	75	96	3
TAP	75	192	1
TAP	75	192	4
TAP	75	288	0
TAP	75	288	5
TAP	76	0	6
TAP	76	0	7
TAP	76	96	4
TAP	76	96	6
TAP	76	192	2
TAP	76	192	4
TAP	76	288	2
TAP	76	288	7
STR	77	0	0
SLL	77	0	0	96	144	4
STR	77	0	1
SV_	77	0	1	96	144	3
TAP	78	0	2
TAP	78	0	3
BRK	78	96	5
TAP	78	144	4
TAP	78	192	6
BRK	78	240	2
TAP	78	288	3
TAP	78	336	1
BRK	79	0	6
TAP	79	96	6
TAP	79	96	7
TAP	79	192	0
TAP	79	192	5
TAP	79	288	1
TAP	79	288	4
TAP	80	0	2
TAP	80	0	3
TAP	80	96	0
TAP	80	96	2
TAP	80	192	0
TAP	80	192	6
TAP	80	288	3
TAP	80	288	6
STR	81	0	4
SLL	81	0	4	96	144	0
STR	81	0	5
SV_	81	0	5	96	144	7
TAP	82	0	1
STR	82	0	6
SI_	82	0	6	96	288	2
BRK	82	96	7
BRK	82	240	0
BRK	83	0	1
TAP	83	192	4
TAP	83	192	5
TAP	83	288	2
TAP	83	288	3
STR	84	0	1
SI_	84	0	1	96	288	5
TAP	84	0	6
TAP	84	96	0
TAP	84	240	7
TAP	85	0	6
TAP	85	192	2
TAP	85	192	3
TAP	85	288	4
TAP	85	288	5
TAP	86	0	1
TAP	86	48	0
BRK	86	96	2
TAP	86	144	7
TAP	86	192	3
BRK	86	240	6
TAP	86	288	4
TAP	86	336	5
BRK	87	0	2
TAP	87	48	3
TAP	87	96	1
TAP	87	144	4
TAP	87	192	0
TAP	87	240	5
TAP	87	288	7
TAP	87	336	6
TAP	88	0	0
TAP	88	48	1
TAP	88	96	2
TAP	88	144	3
TAP	88	192	4
TAP	88	240	5
TAP	88	288	6
TAP	88	336	7
HLD	89	0	0	288
TAP	89	96	4
HLD	89	144	4	144
BST	90	0	0
SCL	90	0	0	96	480	2
SUL	90	0	0	96	480	2

T_REC_TAP	325
T_REC_BRK	25
T_REC_XTP	0
T_REC_HLD	30
T_REC_XHO	0
T_REC_STR	32
T_REC_BST	5
T_REC_XST	0
T_REC_TTP	0
T_REC_THO	0
T_REC_SLD	38
T_REC_ALL	455
T_NUM_TAP	357
T_NUM_BRK	30
T_NUM_HLD	30
T_NUM_SLD	38
T_NUM_ALL	455
T_JUDGE_TAP	387
T_JUDGE_HLD	147
T_JUDGE_SLD	38
T_JUDGE_ALL	572
TTM_EACHPAIRS	105
TTM_SCR_TAP	178500
TTM_SCR_BRK	78000
TTM_SCR_HLD	30000
TTM_SCR_SLD	57000
TTM_SCR_ALL	343500
TTM_SCR_S	330300
TTM_SCR_SS	340500
TTM_RAT_ACV	10088

