VERSION	0.00.00	1.03.00
FES_MODE	0
BPM_DEF	180.000	180.000	180.000	180.000
MET_DEF	4	4
RESOLUTION	384
CLK_DEF	384
COMPATIBLE_CODE	MA2

BPM	0	0	180.000

HLD	2	0	6	384
HLD	3	0	5	384
HLD	4	0	4	384
TAP	5	0	3
TAP	5	192	2
TAP	5	192	3
HLD	6	0	1	384
HLD	7	0	2	384
HLD	8	0	3	384
TAP	9	0	4
TAP	9	192	4
TAP	9	192	5
HLD	10	0	6	384
HLD	11	0	5	384
HLD	12	0	4	384
TAP	13	0	3
TAP	13	192	2
TAP	13	192	3
TAP	14	0	1
TAP	14	192	0
TAP	14	192	1
TAP	15	0	6
TAP	15	192	6
TAP	15	192	7
STR	16	0	0
SCR	16	0	0	96	288	3
STR	16	0	7
SCL	16	0	7	96	288	4
TAP	18	0	3
TAP	18	192	2
TAP	18	192	4
TAP	19	0	4
TAP	19	192	3
TAP	19	192	5
TAP	20	0	2
TAP	20	192	1
TAP	20	192	3
TAP	21	0	5
TAP	21	192	4
TAP	21	192	6
TAP	22	0	1
TAP	22	192	0
TAP	22	192	2
TAP	23	0	6
TAP	23	192	5
TAP	23	192	7
TAP	24	0	0
TAP	24	192	1
TAP	24	192	7
TAP	25	0	7
TAP	25	192	0
TAP	25	192	6
HLD	26	0	1	192
HLD	26	192	2	192
HLD	27	0	3	192
HLD	27	192	4	192
STR	28	0	5
SCR	28	0	5	96	288	2
HLD	30	0	6	192
HLD	30	192	5	192
HLD	31	0	4	192
HLD	31	192	3	192
STR	32	0	2
SCL	32	0	2	96	288	5
HLD	34	0	2	192
TAP	34	192	3
HLD	35	0	5	192
TAP	35	192	4
TAP	36	0	3
TAP	36	0	4
TAP	36	192	3
TAP	36	192	4
TAP	36	288	2
TAP	36	288	5
HLD	37	0	1	192
HLD	37	0	6	192
HLD	38	0	1	192
TAP	38	192	0
HLD	39	0	6	192
TAP	39	192	7
STR	40	0	0
SCR	40	0	0	96	288	3
STR	40	0	7
SCL	40	0	7	96	288	4
HLD	42	0	1	192
HLD	42	192	2	192
TAP	43	0	3
TAP	43	96	3
TAP	43	192	2
TAP	43	192	4
HLD	44	0	6	192
HLD	44	192	5	192
TAP	45	0	4
TAP	45	96	4
TAP	45	192	3
TAP	45	192	5
HLD	46	0	0	192
HLD	46	192	1	192
TAP	47	0	2
TAP	47	96	2
TAP	47	192	1
TAP	47	192	3
HLD	48	0	7	192
HLD	48	192	6	192
TAP	49	0	5
TAP	49	96	5
TAP	49	192	4
TAP	49	192	6
TAP	50	0	2
TAP	50	96	2
TAP	50	192	1
TAP	50	192	3
TAP	51	0	5
TAP	51	96	5
TAP	51	192	4
TAP	51	192	6
TAP	52	0	2
TAP	52	0	5
TAP	52	192	0
TAP	52	192	7
TAP	52	288	0
TAP	52	288	7
TAP	53	0	1
TAP	53	0	6
TAP	53	192	3
TAP	53	192	4
STR	54	0	0
SI_	54	0	0	96	192	5
STR	54	0	1
SI_	54	0	1	96	192	4
STR	55	0	6
SI_	55	0	6	96	192	3
STR	55	0	7
SI_	55	0	7	96	192	2
STR	56	0	0
SCR	56	0	0	96	288	3
STR	56	0	7
SCL	56	0	7	96	288	4
BRK	57	192	1
BRK	57	192	6
TAP	58	0	5
TAP	58	96	4
TAP	58	192	3
TAP	58	192	6
TAP	59	0	2
TAP	59	96	3
TAP	59	192	1
TAP	59	192	4
TAP	60	0	5
TAP	60	96	4
TAP	60	192	3
TAP	60	192	6
TAP	61	0	2
TAP	61	96	3
TAP	61	192	1
TAP	61	192	4
TAP	62	0	6
TAP	62	96	7
TAP	62	192	0
TAP	62	192	5
TAP	63	0	1
TAP	63	96	0
TAP	63	192	2
TAP	63	192	7
TAP	64	0	6
TAP	64	96	7
TAP	64	192	0
TAP	64	192	5
TAP	65	0	1
TAP	65	96	0
TAP	65	192	2
TAP	65	192	7
TAP	66	0	5
TAP	66	96	4
TAP	66	96	6
TAP	66	192	3
TAP	66	288	2
TAP	66	288	4
HLD	67	0	1	192
TAP	67	192	0
TAP	68	0	2
TAP	68	96	1
TAP	68	96	3
TAP	68	192	4
TAP	68	288	3
TAP	68	288	5
HLD	69	0	6	192
TAP	69	192	7
TAP	70	0	1
TAP	70	96	0
TAP	70	96	2
TAP	70	192	7
TAP	70	288	0
TAP	70	288	6
HLD	71	0	5	192
TAP	71	192	4
TAP	72	0	6
TAP	72	96	5
TAP	72	96	7
TAP	72	192	0
TAP	72	288	1
TAP	72	288	7
HLD	73	0	2	192
TAP	73	192	3
TAP	74	0	5
TAP	74	96	4
TAP	74	96	6
TAP	74	192	2
TAP	74	288	1
TAP	74	288	3
TAP	75	0	0
TAP	75	96	6
TAP	75	96	7
TAP	75	192	0
TAP	75	192	5
TAP	76	0	2
TAP	76	96	1
TAP	76	96	3
TAP	76	192	5
TAP	76	288	4
TAP	76	288	6
TAP	77	0	7
TAP	77	96	0
TAP	77	96	1
TAP	77	192	2
TAP	77	192	7
TAP	78	0	6
TAP	78	96	5
TAP	78	96	7
TAP	78	192	1
TAP	78	288	0
TAP	78	288	2
TAP	79	0	3
TAP	79	96	4
TAP	79	96	5
TAP	79	192	3
TAP	79	192	6
TAP	80	0	1
TAP	80	96	0
TAP	80	96	2
TAP	80	192	6
TAP	80	288	5
TAP	80	288	7
TAP	81	0	4
TAP	81	96	2
TAP	81	96	3
TAP	81	192	1
TAP	81	192	4
TAP	82	0	6
TAP	82	96	6
TAP	82	96	7
TAP	82	192	5
TAP	82	288	4
TAP	82	288	5
TAP	83	0	3
TAP	83	96	2
TAP	83	96	3
TAP	83	192	1
TAP	83	288	0
TAP	83	288	1
TAP	84	0	7
TAP	84	96	0
TAP	84	96	6
TAP	84	192	5
TAP	84	288	4
TAP	84	288	6
TAP	85	0	2
TAP	85	96	1
TAP	85	96	3
TAP	85	192	0
TAP	85	192	7
TAP	86	0	1
TAP	86	96	0
TAP	86	96	1
TAP	86	192	2
TAP	86	288	2
TAP	86	288	3
TAP	87	0	4
TAP	87	96	4
TAP	87	96	5
TAP	87	192	6
TAP	87	288	6
TAP	87	288	7
TAP	88	0	0
TAP	88	96	1
TAP	88	96	7
TAP	88	192	2
TAP	88	288	1
TAP	88	288	3
TAP	89	0	5
TAP	89	96	4
TAP	89	96	6
TAP	89	192	0
TAP	89	192	7
BST	90	0	0
SCR	90	0	0	96	288	3
BST	90	0	7
SCL	90	0	7	96	288	4

T_REC_TAP	233
T_REC_BRK	2
T_REC_XTP	0
T_REC_HLD	35
T_REC_XHO	0
T_REC_STR	12
T_REC_BST	2
T_REC_XST	0
T_REC_TTP	0
T_REC_THO	0
T_REC_SLD	14
T_REC_ALL	298
T_NUM_TAP	245
T_NUM_BRK	4
T_NUM_HLD	35
T_NUM_SLD	14
T_NUM_ALL	298
T_JUDGE_TAP	249
T_JUDGE_HLD	176
T_JUDGE_SLD	14
T_JUDGE_ALL	439
TTM_EACHPAIRS	83
TTM_SCR_TAP	122500
TTM_SCR_BRK	10400
TTM_SCR_HLD	35000
TTM_SCR_SLD	21000
TTM_SCR_ALL	188900
TTM_SCR_S	182850
TTM_SCR_SS	188500
TTM_RAT_ACV	10021

