VERSION	0.00.00	1.03.00
FES_MODE	0
BPM_DEF	180.000	180.000	180.000	180.000
MET_DEF	4	4
RESOLUTION	384
CLK_DEF	384
COMPATIBLE_CODE	MA2

BPM	0	0	180.000

HLD	2	0	0	768
HLD	6	0	7	768
TAP	10	0	0
TAP	11	0	1
TAP	12	0	2
TAP	13	0	3
TAP	14	0	4
TAP	15	0	5
TAP	16	0	6
TAP	17	0	7
STR	18	0	0
SI_	18	0	0	96	288	3
HLD	20	0	7	384
STR	22	0	7
SI_	22	0	7	96	288	4
HLD	24	0	0	384
TAP	26	0	0
TAP	26	192	0
TAP	27	0	0
TAP	28	0	1
TAP	28	192	1
TAP	29	0	1
TAP	30	0	2
TAP	30	192	2
TAP	31	0	3
TAP	31	192	3
HLD	32	0	3	384
HLD	32	0	4	384
TAP	34	0	5
TAP	34	192	5
TAP	35	0	6
TAP	35	192	6
STR	36	0	7
SI_	36	0	7	96	288	3
TAP	38	0	2
TAP	38	192	2
TAP	39	0	1
TAP	39	192	1
STR	40	0	0
SI_	40	0	0	96	288	4
TAP	42	0	7
TAP	42	192	7
TAP	43	0	7
TAP	44	0	6
TAP	44	192	6
TAP	45	0	6
TAP	46	0	5
TAP	46	192	5
TAP	47	0	4
TAP	47	192	4
HLD	48	0	3	384
HLD	48	0	4	384
TAP	50	0	2
TAP	50	192	2
TAP	51	0	1
TAP	51	192	1
STR	52	0	0
SI_	52	0	0	96	288	4
TAP	54	0	5
TAP	54	192	5
TAP	55	0	6
TAP	55	192	6
TAP	56	0	7
TAP	56	192	7
BRK	57	0	0
BRK	57	0	7
TAP	58	0	0
TAP	58	192	0
TAP	59	0	1
TAP	59	192	1
TAP	60	0	2
TAP	60	192	2
TAP	61	0	3
TAP	61	192	3
TAP	62	0	4
TAP	62	192	4
TAP	63	0	5
TAP	63	192	5
TAP	64	0	6
TAP	64	192	6
TAP	65	0	0
TAP	65	0	7
TAP	66	0	6
TAP	66	192	6
TAP	67	0	5
TAP	67	192	5
TAP	68	0	4
TAP	68	192	4
TAP	69	0	3
TAP	69	192	3
TAP	70	0	2
TAP	70	96	2
TAP	70	192	2
TAP	71	0	1
TAP	71	96	1
TAP	71	192	1
STR	72	0	0
SI_	72	0	0	96	288	4
TAP	74	0	4
TAP	74	192	4
TAP	75	0	5
TAP	75	192	5
TAP	76	0	6
TAP	76	192	6
TAP	77	0	7
TAP	77	192	7
TAP	78	0	0
TAP	78	192	0
TAP	79	0	1
TAP	79	192	1
TAP	80	0	2
TAP	80	192	2
TAP	81	0	3
TAP	81	0	4
TAP	82	0	2
TAP	82	192	2
TAP	83	0	1
TAP	83	192	1
TAP	84	0	0
TAP	84	192	0
TAP	85	0	7
TAP	85	192	7
TAP	86	0	6
TAP	86	96	6
TAP	86	192	6
TAP	87	0	5
TAP	87	96	5
TAP	87	192	5
STR	88	0	4
SI_	88	0	4	96	288	0
STR	90	0	0
SI_	90	0	0	96	288	3
STR	90	0	7
SI_	90	0	7	96	288	4

T_REC_TAP	106
T_REC_BRK	2
T_REC_XTP	0
T_REC_HLD	8
T_REC_XHO	0
T_REC_STR	9
T_REC_BST	0
T_REC_XST	0
T_REC_TTP	0
T_REC_THO	0
T_REC_SLD	9
T_REC_ALL	134
T_NUM_TAP	115
T_NUM_BRK	2
T_NUM_HLD	8
T_NUM_SLD	9
T_NUM_ALL	134
T_JUDGE_TAP	117
T_JUDGE_HLD	80
T_JUDGE_SLD	9
T_JUDGE_ALL	206
TTM_EACHPAIRS	6
TTM_SCR_TAP	57500
TTM_SCR_BRK	5200
TTM_SCR_HLD	8000
TTM_SCR_SLD	13500
TTM_SCR_ALL	84200
TTM_SCR_S	81500
TTM_SCR_SS	84000
TTM_RAT_ACV	10023

