VERSION	0.00.00	1.03.00
FES_MODE	0
BPM_DEF	120.000	120.000	120.000	120.000
MET_DEF	4	4
RESOLUTION	384
CLK_DEF	384
COMPATIBLE_CODE	MA2

BPM	0	0	120.000

BRK	1	0	4
TAP	1	192	5
TAP	2	0	6
TAP	2	192	7
TAP	3	0	0
TAP	3	192	1
TAP	4	0	2
TAP	4	192	3
STR	5	0	5
SCL	5	0	5	96	48	2
TAP	5	96	0
STR	5	192	1
SUR	5	192	1	96	48	5
TAP	5	288	0
TAP	5	336	7
STR	6	0	6
SCR	6	0	6	96	48	1
TAP	6	96	5
STR	6	192	4
SCR	6	192	4	96	48	7
TAP	6	240	3
TAP	6	288	2
TAP	6	336	1
STR	7	0	2
SCR	7	0	2	96	48	5
TAP	7	96	7
STR	7	192	6
SUL	7	192	6	96	48	2
TAP	7	288	7
TAP	7	336	0
STR	8	0	1
SCL	8	0	1	96	48	6
TAP	8	96	2
STR	8	192	3
SCL	8	192	3	96	48	0
TAP	8	240	4
TAP	8	288	5
STR	9	0	6
SI_	9	0	6	96	48	3
STR	9	0	7
SUL	9	0	7	96	48	2
TAP	9	192	0
TAP	9	192	1
TAP	9	240	7
TAP	9	288	6
TAP	9	336	5
STR	10	0	4
SI_	10	0	4	96	48	0
STR	10	96	3
SI_	10	96	3	96	48	7
TAP	10	192	5
TAP	10	240	6
TAP	10	288	2
TAP	10	336	1
STR	11	0	0
SUR	11	0	0	96	48	5
STR	11	0	1
SI_	11	0	1	96	48	4
TAP	11	192	6
TAP	11	192	7
TAP	11	240	0
TAP	11	288	1
TAP	11	336	2
TAP	12	0	3
STR	12	0	4
SCR	12	0	4	96	192	3
BRK	13	0	3
TAP	13	192	4
TAP	14	0	2
HLD	14	0	5	96
STR	14	96	0
SI_	14	96	0	96	48	4
TAP	14	192	0
TAP	14	192	6
STR	14	288	5
SI_	14	288	5	96	48	0
HLD	15	0	2	96
TAP	15	0	5
STR	15	96	7
SI_	15	96	7	96	48	3
TAP	15	192	1
TAP	15	192	7
STR	15	288	2
SI_	15	288	2	96	48	7
TAP	16	0	2
HLD	16	0	6	96
STR	16	96	5
SI_	16	96	5	96	48	1
TAP	16	192	5
TAP	16	192	7
STR	16	288	6
SI_	16	288	6	96	48	3
HLD	17	0	1	96
TAP	17	0	6
STR	17	96	2
SI_	17	96	2	96	48	6
TAP	17	192	0
TAP	17	192	2
STR	17	288	1
SI_	17	288	1	96	48	4
TAP	18	0	1
STR	18	0	6
SI_	18	0	6	96	48	3
STR	18	96	2
SI_	18	96	2	96	48	7
TAP	18	96	6
TAP	18	192	2
STR	18	192	3
SI_	18	192	3	96	48	6
TAP	18	288	3
TAP	18	288	7
STR	19	0	1
SI_	19	0	1	96	48	4
TAP	19	96	1
STR	19	96	5
SI_	19	96	5	96	48	0
STR	19	192	4
SI_	19	192	4	96	48	1
TAP	19	192	5
TAP	19	288	0
TAP	19	288	4
STR	20	0	2
SUL	20	0	2	96	48	6
STR	20	0	6
SUL	20	0	6	96	48	2
STR	20	192	1
SUR	20	192	1	96	48	5
STR	20	192	5
SUR	20	192	5	96	48	1
TAP	21	0	1
TAP	21	0	6
TAP	21	96	4
TAP	21	96	5
TAP	21	192	2
TAP	21	192	3
TAP	21	288	6
TAP	21	288	7
TAP	22	0	0
TAP	22	0	1
TAP	22	48	0
TAP	22	48	1
TAP	22	96	3
TAP	22	120	4
TAP	22	144	5
TAP	22	192	6
TAP	22	192	7
TAP	22	240	6
TAP	22	240	7
TAP	22	288	4
TAP	22	312	3
TAP	22	336	2
TAP	23	0	0
TAP	23	0	7
TAP	23	48	0
TAP	23	48	7
TAP	23	96	1
TAP	23	120	2
TAP	23	144	3
TAP	23	192	1
TAP	23	192	6
TAP	23	216	5
TAP	23	240	4
TAP	23	264	3
TAP	23	288	2
TAP	23	312	3
TAP	23	336	4
TAP	24	0	0
TAP	24	0	7
TAP	24	48	0
TAP	24	48	7
TAP	24	96	6
TAP	24	120	5
TAP	24	144	4
TAP	24	192	0
TAP	24	192	7
TAP	24	240	0
TAP	24	240	7
TAP	24	288	1
TAP	24	312	2
TAP	24	336	3
TAP	25	0	1
TAP	25	0	6
TAP	25	24	2
TAP	25	48	3
TAP	25	72	4
TAP	25	96	5
TAP	25	120	4
TAP	25	144	3
TAP	25	168	2
TAP	25	192	1
TAP	25	192	6
TAP	25	216	5
TAP	25	240	4
TAP	25	264	3
TAP	25	288	2
TAP	25	312	3
TAP	25	336	4
TAP	25	360	5
STR	26	0	6
SI_	26	0	6	96	48	3
TAP	26	0	7
TAP	26	48	5
TAP	26	96	6
TAP	26	96	7
TAP	26	144	0
TAP	26	192	0
STR	26	192	1
SI_	26	192	1	96	48	4
TAP	26	240	2
TAP	26	288	0
TAP	26	288	1
TAP	26	336	7
STR	27	0	6
SCL	27	0	6	96	96	7
STR	27	0	7
SUL	27	0	7	96	96	6
TAP	27	288	3
TAP	27	288	4
TAP	28	0	0
STR	28	0	1
SI_	28	0	1	96	48	4
TAP	28	48	2
TAP	28	96	0
TAP	28	96	1
TAP	28	144	7
STR	28	192	6
SI_	28	192	6	96	48	3
TAP	28	192	7
TAP	28	240	5
TAP	28	288	6
TAP	28	288	7
TAP	28	336	0
STR	29	0	0
SUR	29	0	0	96	96	1
STR	29	0	1
SCR	29	0	1	96	96	0
TAP	29	288	3
TAP	29	288	4
TAP	30	0	2
STR	30	0	3
SI_	30	0	3	96	48	6
TAP	30	48	4
TAP	30	96	2
TAP	30	96	3
TAP	30	144	1
STR	30	192	0
SI_	30	192	0	96	48	3
TAP	30	192	7
TAP	30	240	1
TAP	30	288	0
TAP	30	288	7
TAP	30	336	6
STR	31	0	4
SUL	31	0	4	96	96	3
STR	31	0	5
SCR	31	0	5	96	96	2
TAP	31	288	1
TAP	31	288	6
STR	32	0	4
SI_	32	0	4	96	48	1
TAP	32	0	5
TAP	32	48	3
TAP	32	96	4
TAP	32	96	5
TAP	32	144	6
TAP	32	192	0
STR	32	192	7
SI_	32	192	7	96	48	4
TAP	32	240	6
TAP	32	288	0
TAP	32	288	7
TAP	32	336	1
STR	33	0	2
SI_	33	0	2	96	48	6
STR	33	0	3
SI_	33	0	3	96	48	7
STR	33	192	4
SI_	33	192	4	96	48	0
STR	33	192	5
SI_	33	192	5	96	48	1
HLD	34	0	6	336
STR	34	0	7
SCR	34	0	7	96	96	5
STR	34	288	7
SSR	34	288	7	96	192	3
TAP	34	336	0
HLD	35	0	1	336
TAP	35	0	7
STR	35	288	0
SSL	35	288	0	96	192	4
TAP	35	336	7
TAP	36	0	0
HLD	36	0	6	336
STR	36	288	7
SI_	36	288	7	96	48	3
TAP	36	336	0
TAP	37	0	1
TAP	37	0	7
TAP	37	96	0
TAP	37	96	7
TAP	37	192	1
TAP	37	192	4
TAP	37	240	2
TAP	37	240	3
TAP	37	288	3
TAP	37	288	6
TAP	37	336	4
TAP	37	336	5
HLD	38	0	2	144
STR	38	96	3
SI_	38	96	3	96	48	7
TAP	38	144	4
TAP	38	192	3
HLD	38	192	5	144
STR	38	288	4
SI_	38	288	4	96	48	0
TAP	38	336	3
HLD	39	0	2	144
TAP	39	0	4
STR	39	96	3
SI_	39	96	3	96	48	7
TAP	39	144	5
TAP	39	192	3
HLD	39	192	6	144
STR	39	288	4
SI_	39	288	4	96	48	0
TAP	39	336	2
HLD	40	0	1	96
TAP	40	0	4
TAP	40	96	6
STR	40	192	0
SI_	40	192	0	96	48	4
TAP	40	192	7
TAP	40	240	1
TAP	40	288	0
STR	40	288	7
SI_	40	288	7	96	48	3
TAP	40	336	6
BRK	41	0	0
BRK	41	0	7
TAP	41	192	2
TAP	41	192	5
TAP	41	240	2
TAP	41	240	5
TAP	41	288	0
TAP	41	312	7
TAP	41	336	0
TAP	41	360	7
STR	42	0	0
SCR	42	0	0	96	96	4
STR	42	96	4
SCR	42	96	4	96	96	0
STR	42	192	0
SF_	42	192	0	96	48	4
BRK	43	0	1
BRK	43	0	6
HLD	43	96	5	144
STR	43	192	0
SI_	43	192	0	96	48	4
HLD	43	240	1	48
TAP	43	288	0
HLD	43	336	2	96
STR	44	0	7
SI_	44	0	7	96	48	3
HLD	44	48	6	48
TAP	44	96	7
HLD	44	144	5	96
STR	44	192	0
SI_	44	192	0	96	48	5
HLD	44	240	1	48
TAP	44	288	0
HLD	44	336	2	96
STR	45	0	7
SI_	45	0	7	96	48	2
HLD	45	48	6	48
TAP	45	96	7
HLD	45	144	5	96
STR	45	192	0
SCL	45	192	0	96	48	4
HLD	45	240	1	48
TAP	45	288	0
HLD	45	336	2	96
STR	46	0	7
SCR	46	0	7	96	48	3
HLD	46	48	6	48
TAP	46	96	7
HLD	46	144	5	48
STR	46	192	3
SF_	46	192	3	96	48	7
STR	47	0	1
SI_	47	0	1	96	48	5
HLD	47	0	4	240
TAP	47	96	1
STR	47	192	7
SI_	47	192	7	96	48	3
HLD	47	240	0	48
TAP	47	288	7
HLD	47	336	1	96
STR	48	0	6
SI_	48	0	6	96	48	2
HLD	48	48	5	48
TAP	48	96	6
HLD	48	144	4	48
STR	48	192	0
SCL	48	192	0	96	48	4
SCR	48	192	0	96	48	4
STR	49	0	2
SI_	49	0	2	96	48	7
STR	49	0	6
SI_	49	0	6	96	48	3
TAP	49	96	2
TAP	49	96	6
STR	49	192	1
SI_	49	192	1	96	48	4
STR	49	192	5
SI_	49	192	5	96	48	0
TAP	49	288	1
TAP	49	288	5
TAP	50	0	6
TAP	50	0	7
STR	50	96	0
SLR	50	96	0	96	36	4
STR	50	96	1
SLR	50	96	1	96	48	5
STR	50	144	4
SLR	50	144	4	96	36	0
STR	50	144	5
SLR	50	144	5	96	48	1
BRK	51	0	1
BRK	51	0	6
HLD	51	96	2	144
STR	51	192	7
SI_	51	192	7	96	48	3
HLD	51	240	6	48
TAP	51	288	7
HLD	51	336	5	96
STR	52	0	0
SI_	52	0	0	96	48	4
HLD	52	48	1	48
TAP	52	96	0
HLD	52	144	2	96
STR	52	192	7
SUL	52	192	7	96	48	2
HLD	52	240	6	48
TAP	52	288	7
HLD	52	336	5	96
STR	53	0	0
SUR	53	0	0	96	48	5
HLD	53	48	1	48
TAP	53	96	0
HLD	53	144	2	96
STR	53	192	7
SUR	53	192	7	96	48	4
HLD	53	240	6	48
TAP	53	288	7
HLD	53	336	5	96
STR	54	0	0
SUL	54	0	0	96	48	3
HLD	54	48	1	48
TAP	54	96	0
HLD	54	144	2	48
STR	54	192	4
SF_	54	192	4	96	48	0
HLD	55	0	3	240
STR	55	0	6
SI_	55	0	6	96	48	2
TAP	55	96	6
STR	55	192	0
SI_	55	192	0	96	48	4
HLD	55	240	7	48
TAP	55	288	0
HLD	55	336	6	96
STR	56	0	1
SI_	56	0	1	96	48	5
HLD	56	48	2	48
TAP	56	96	1
HLD	56	144	3	48
STR	56	192	7
SCL	56	192	7	96	48	3
SCR	56	192	7	96	48	3
STR	57	0	1
SI_	57	0	1	96	48	4
STR	57	0	5
SI_	57	0	5	96	48	0
TAP	57	96	1
TAP	57	96	5
STR	57	192	2
SI_	57	192	2	96	48	7
STR	57	192	6
SI_	57	192	6	96	48	3
TAP	57	288	2
TAP	57	288	6
TAP	58	0	0
TAP	58	0	1
STR	58	96	6
SLL	58	96	6	96	48	2
STR	58	96	7
SLL	58	96	7	96	36	3
STR	58	144	2
SLL	58	144	2	96	48	6
STR	58	144	3
SLL	58	144	3	96	36	7
BST	59	0	3
SCL	59	0	3	96	288	4
BST	59	0	4
SUL	59	0	4	96	288	3

T_REC_TAP	240
T_REC_BRK	8
T_REC_XTP	0
T_REC_HLD	48
T_REC_XHO	0
T_REC_STR	102
T_REC_BST	2
T_REC_XST	0
T_REC_TTP	0
T_REC_THO	0
T_REC_SLD	106
T_REC_ALL	506
T_NUM_TAP	342
T_NUM_BRK	10
T_NUM_HLD	48
T_NUM_SLD	106
T_NUM_ALL	506
T_JUDGE_TAP	352
T_JUDGE_HLD	103
T_JUDGE_SLD	106
T_JUDGE_ALL	561
TTM_EACHPAIRS	100
TTM_SCR_TAP	171000
TTM_SCR_BRK	26000
TTM_SCR_HLD	48000
TTM_SCR_SLD	159000
TTM_SCR_ALL	404000
TTM_SCR_S	390950
TTM_SCR_SS	403000
TTM_RAT_ACV	10024

