VERSION	0.00.00	1.03.00
FES_MODE	0
BPM_DEF	120.000	120.000	120.000	120.000
MET_DEF	4	4
RESOLUTION	384
CLK_DEF	384
COMPATIBLE_CODE	MA2

BPM	0	0	120.000
MET	0	0	4	4

BRK	1	0	0
TAP	1	192	1
TAP	2	0	2
TAP	2	192	3
TAP	3	0	4
TAP	3	192	5
TAP	4	0	6
TAP	4	192	7
HLD	5	0	1	96
HLD	5	96	2	96
TAP	5	192	3
TAP	5	288	1
TAP	5	288	4
HLD	6	0	6	96
HLD	6	96	5	96
TAP	6	192	4
TAP	6	288	3
TAP	6	288	6
HLD	7	0	2	96
HLD	7	96	1	96
TAP	7	192	0
TAP	7	288	2
TAP	7	288	7
HLD	8	0	5	96
HLD	8	96	6	96
TAP	8	192	7
TAP	8	288	0
TAP	8	288	5
HLD	9	0	6	96
HLD	9	96	5	96
TAP	9	192	4
TAP	9	288	3
TAP	9	288	6
HLD	10	0	1	96
HLD	10	96	2	96
TAP	10	192	3
TAP	10	288	1
TAP	10	288	4
HLD	11	0	5	96
HLD	11	96	6	96
TAP	11	192	7
STR	11	288	0
SCR	11	288	0	96	288	7
TAP	11	288	5
HLD	13	0	3	288
HLD	13	0	4	288
HLD	14	0	4	288
TAP	14	96	5
TAP	14	192	6
TAP	14	288	7
HLD	15	0	2	288
TAP	15	96	3
TAP	15	192	1
TAP	15	288	0
HLD	16	0	6	288
TAP	16	96	4
TAP	16	192	5
TAP	16	288	7
HLD	17	0	0	288
TAP	17	96	3
TAP	17	192	2
TAP	17	288	1
TAP	18	0	5
TAP	18	96	4
TAP	18	96	5
TAP	18	192	0
TAP	18	192	5
TAP	18	288	3
TAP	18	288	5
TAP	19	0	2
TAP	19	96	2
TAP	19	96	3
TAP	19	192	2
TAP	19	192	7
TAP	19	288	2
TAP	19	288	4
TAP	20	0	6
TAP	20	96	6
TAP	20	96	7
TAP	20	192	3
TAP	20	192	6
TAP	20	288	0
TAP	20	288	6
TAP	21	0	1
TAP	21	96	0
TAP	21	96	1
TAP	21	192	1
TAP	21	192	4
TAP	21	288	1
TAP	21	288	7
TAP	22	0	3
TAP	22	48	4
TAP	22	96	5
TAP	22	144	6
TAP	22	192	6
TAP	22	240	5
TAP	22	288	4
TAP	22	336	3
TAP	23	0	4
TAP	23	48	3
TAP	23	96	2
TAP	23	144	1
TAP	23	192	1
TAP	23	240	2
TAP	23	288	3
TAP	23	336	4
TAP	24	0	0
TAP	24	48	7
TAP	24	96	6
TAP	24	144	5
TAP	24	192	5
TAP	24	240	6
TAP	24	288	7
TAP	24	336	0
TAP	25	0	7
TAP	25	48	0
TAP	25	96	1
TAP	25	144	2
TAP	25	192	2
TAP	25	240	1
TAP	25	288	0
TAP	25	336	7
HLD	26	0	0	96
HLD	26	96	2	96
HLD	26	192	3	96
STR	26	288	4
SXR	26	288	4	96	192	7
TAP	27	288	2
TAP	27	288	3
HLD	28	0	7	96
HLD	28	96	5	96
HLD	28	192	4	96
STR	28	288	3
SXL	28	288	3	96	192	0
TAP	29	288	4
TAP	29	288	5
TAP	30	0	3
TAP	30	48	4
TAP	30	96	5
TAP	30	144	6
TAP	30	192	4
TAP	30	240	3
TAP	30	288	2
TAP	30	336	1
HLD	31	0	4	96
HLD	31	96	6	96
HLD	31	192	0	96
TAP	31	288	2
TAP	32	0	4
TAP	32	48	3
TAP	32	96	2
TAP	32	144	1
TAP	32	192	3
TAP	32	240	4
TAP	32	288	5
TAP	32	336	6
HLD	33	0	3	96
HLD	33	96	1	96
HLD	33	192	7	96
TAP	33	288	5
STR	34	0	2
SCR	34	0	2	96	144	5
STR	34	192	6
SCR	34	192	6	96	144	1
STR	35	0	2
SCR	35	0	2	96	144	5
TAP	35	192	7
TAP	35	240	6
TAP	35	288	0
TAP	35	288	5
STR	36	0	5
SCL	36	0	5	96	144	2
STR	36	192	1
SCL	36	192	1	96	144	6
STR	37	0	5
SCL	37	0	5	96	144	2
TAP	37	192	0
STR	37	288	3
SCL	37	288	3	96	192	6
STR	37	288	5
SUR	37	288	5	96	192	4
STR	38	288	2
SUL	38	288	2	96	192	3
STR	38	288	4
SCR	38	288	4	96	192	1
STR	39	288	0
SUR	39	288	0	96	192	7
STR	39	288	6
SCL	39	288	6	96	192	1
TAP	40	288	2
TAP	40	288	4
STR	41	0	3
SF_	41	0	3	96	144	7
TAP	41	288	2
TAP	41	288	4
STR	42	0	0
SI_	42	0	0	96	144	3
TAP	42	96	5
TAP	42	144	6
STR	42	192	7
SI_	42	192	7	96	144	4
TAP	42	288	2
TAP	42	336	1
STR	43	0	0
SI_	43	0	0	96	144	3
TAP	43	96	5
TAP	43	144	6
STR	43	192	7
SI_	43	192	7	96	144	4
TAP	43	288	2
TAP	43	336	1
TAP	44	0	0
TAP	44	96	3
STR	44	96	7
SCL	44	96	7	96	144	4
SCR	44	96	7	96	144	2
TAP	45	0	0
TAP	45	48	7
TAP	45	96	6
TAP	45	144	5
TAP	45	192	7
TAP	45	240	0
TAP	45	288	1
TAP	45	336	2
TAP	46	0	3
TAP	46	0	4
TAP	46	96	3
STR	46	96	7
SCL	46	96	7	96	144	4
SCR	46	96	7	96	144	2
STR	47	0	0
SCR	47	0	0	96	144	3
TAP	47	96	5
TAP	47	144	6
STR	47	192	7
SCL	47	192	7	96	144	4
TAP	47	288	2
TAP	47	336	1
STR	48	0	0
SCR	48	0	0	96	144	3
TAP	48	96	5
TAP	48	144	6
STR	48	192	7
SCL	48	192	7	96	144	4
TAP	48	288	2
TAP	48	336	1
TAP	49	0	0
TAP	49	96	1
TAP	49	96	7
TAP	49	192	2
TAP	49	192	6
TAP	49	288	3
TAP	49	288	5
STR	50	0	4
SCR	50	0	4	96	144	7
STR	50	192	3
SCL	50	192	3	96	144	0
STR	51	0	4
SI_	51	0	4	96	144	7
TAP	51	96	0
TAP	51	144	1
STR	51	192	3
SI_	51	192	3	96	144	0
TAP	51	288	7
TAP	51	336	6
TAP	52	0	4
STR	52	96	3
SCL	52	96	3	96	144	0
SCR	52	96	3	96	144	6
TAP	52	96	7
TAP	53	0	4
TAP	53	48	3
TAP	53	96	2
TAP	53	144	1
TAP	53	192	3
TAP	53	240	4
TAP	53	288	5
TAP	53	336	6
TAP	54	0	0
TAP	54	0	7
TAP	54	96	0
STR	54	96	4
SCL	54	96	4	96	144	1
SCR	54	96	4	96	144	7
STR	55	0	4
SCR	55	0	4	96	144	7
TAP	55	96	0
TAP	55	144	1
STR	55	192	3
SCL	55	192	3	96	144	0
TAP	55	288	7
TAP	55	336	6
STR	56	0	4
SCR	56	0	4	96	144	7
TAP	56	96	0
TAP	56	144	1
STR	56	192	3
SCL	56	192	3	96	144	0
TAP	56	288	7
TAP	56	336	6
TAP	57	0	4
TAP	57	96	3
TAP	57	96	5
TAP	57	192	2
TAP	57	192	6
TAP	57	288	1
TAP	57	288	7
HLD	58	0	0	384
TAP	58	96	7
TAP	58	192	5
TAP	58	288	3
STR	59	0	1
SCR	59	0	1	96	480	0

T_REC_TAP	201
T_REC_BRK	1
T_REC_XTP	0
T_REC_HLD	33
T_REC_XHO	0
T_REC_STR	37
T_REC_BST	0
T_REC_XST	0
T_REC_TTP	0
T_REC_THO	0
T_REC_SLD	41
T_REC_ALL	313
T_NUM_TAP	238
T_NUM_BRK	1
T_NUM_HLD	33
T_NUM_SLD	41
T_NUM_ALL	313
T_JUDGE_TAP	239
T_JUDGE_HLD	96
T_JUDGE_SLD	41
T_JUDGE_ALL	376
TTM_EACHPAIRS	40
TTM_SCR_TAP	119000
TTM_SCR_BRK	2600
TTM_SCR_HLD	33000
TTM_SCR_SLD	61500
TTM_SCR_ALL	216100
TTM_SCR_S	209550
TTM_SCR_SS	216000
TTM_RAT_ACV	10004

