VERSION	0.00.00	1.03.00
FES_MODE	0
BPM_DEF	120.000	120.000	120.000	120.000
MET_DEF	4	4
RESOLUTION	384
CLK_DEF	384
COMPATIBLE_CODE	MA2

BPM	0	0	120.000

TAP	5	0	5
TAP	5	96	4
TAP	5	192	2
TAP	5	192	3
TAP	6	0	2
TAP	6	96	3
TAP	6	192	4
TAP	6	192	5
TAP	7	0	6
TAP	7	96	5
TAP	7	192	3
TAP	7	192	4
TAP	8	0	1
TAP	8	96	2
TAP	8	192	3
TAP	8	192	4
TAP	9	0	6
TAP	9	96	7
TAP	9	192	0
TAP	9	192	1
TAP	10	0	1
TAP	10	96	0
TAP	10	192	6
TAP	10	192	7
TAP	11	0	0
TAP	11	0	7
TAP	11	96	1
TAP	11	96	6
TAP	11	192	2
TAP	11	192	5
TAP	11	288	3
TAP	11	288	4
STR	12	0	3
SI_	12	0	3	96	96	0
STR	12	0	4
SI_	12	0	4	96	96	7
TAP	13	0	0
TAP	13	192	7
TAP	14	0	1
TAP	14	96	2
TAP	14	192	3
TAP	14	288	4
TAP	15	0	6
TAP	15	96	5
TAP	15	192	4
TAP	15	288	3
TAP	16	0	2
TAP	16	96	3
TAP	16	192	4
TAP	16	288	5
TAP	17	0	4
TAP	17	96	3
TAP	17	192	2
TAP	17	192	5
TAP	18	0	1
TAP	18	96	0
TAP	18	192	1
TAP	18	288	2
TAP	18	288	7
TAP	19	0	6
TAP	19	96	7
TAP	19	192	6
TAP	19	288	0
TAP	19	288	5
TAP	20	0	1
TAP	20	96	0
TAP	20	96	1
TAP	20	192	6
TAP	20	288	6
TAP	20	288	7
TAP	21	0	0
TAP	21	0	7
TAP	21	96	1
TAP	21	96	6
TAP	21	192	2
TAP	21	192	5
TAP	21	288	3
TAP	21	288	4
HLD	22	0	2	96
TAP	22	96	3
HLD	22	192	5	96
TAP	22	288	4
HLD	23	0	1	96
TAP	23	96	2
HLD	23	192	6	96
TAP	23	288	5
HLD	24	0	1	96
TAP	24	96	0
HLD	24	192	6	96
TAP	24	288	7
TAP	25	0	0
TAP	25	96	7
TAP	25	192	1
TAP	25	192	6
HLD	26	0	2	192
HLD	26	192	3	192
STR	27	0	4
SI_	27	0	4	96	96	0
HLD	28	0	5	192
HLD	28	192	4	192
STR	29	0	3
SI_	29	0	3	96	96	7
TAP	30	0	2
HLD	30	0	3	192
HLD	30	192	4	192
STR	31	0	5
SCR	31	0	5	96	192	2
HLD	32	0	4	192
TAP	32	0	5
HLD	32	192	3	192
STR	33	0	2
SCL	33	0	2	96	192	5
HLD	34	0	2	192
TAP	34	192	3
TAP	34	288	1
TAP	34	288	4
HLD	35	0	5	192
TAP	35	192	4
TAP	35	288	3
TAP	35	288	6
HLD	36	0	2	192
TAP	36	192	3
TAP	36	288	1
TAP	36	288	4
TAP	37	0	5
TAP	37	96	4
TAP	37	96	5
TAP	37	192	3
TAP	37	192	6
TAP	37	288	2
TAP	37	288	7
HLD	38	0	1	192
TAP	38	192	0
TAP	38	288	2
TAP	38	288	7
HLD	39	0	6	192
TAP	39	192	7
TAP	39	288	0
TAP	39	288	5
TAP	40	0	1
TAP	40	96	0
TAP	40	96	1
TAP	40	192	6
TAP	40	288	6
TAP	40	288	7
TAP	41	0	1
TAP	41	0	6
BST	42	0	0
SXL	42	0	0	96	288	3
BST	42	0	7
SXR	42	0	7	96	288	4
TAP	43	192	3
TAP	43	192	4
TAP	43	288	3
TAP	43	288	4
TAP	44	0	2
TAP	44	96	1
TAP	44	96	3
TAP	44	192	5
TAP	44	288	4
TAP	44	288	6
TAP	45	0	2
TAP	45	96	1
TAP	45	96	3
TAP	45	192	5
TAP	45	288	4
TAP	45	288	6
TAP	46	0	1
TAP	46	96	0
TAP	46	96	1
TAP	46	192	2
TAP	46	192	7
STR	47	0	4
SI_	47	0	4	96	96	1
STR	47	0	5
SI_	47	0	5	96	96	0
HLD	48	0	6	96
TAP	48	96	7
TAP	48	192	0
TAP	48	192	5
TAP	49	0	2
TAP	49	0	3
TAP	49	96	1
TAP	49	96	4
TAP	49	192	4
TAP	49	192	5
TAP	49	288	3
TAP	49	288	6
TAP	50	0	3
TAP	50	0	4
TAP	50	96	3
TAP	50	96	4
TAP	50	192	2
TAP	50	192	5
TAP	50	288	2
TAP	50	288	5
BRK	51	0	1
BRK	51	0	6
TAP	51	192	3
TAP	51	192	4
TAP	51	288	3
TAP	51	288	4
TAP	52	0	5
TAP	52	96	4
TAP	52	96	6
TAP	52	192	2
TAP	52	288	1
TAP	52	288	3
TAP	53	0	5
TAP	53	96	4
TAP	53	96	6
TAP	53	192	2
TAP	53	288	1
TAP	53	288	3
TAP	54	0	6
TAP	54	96	6
TAP	54	96	7
TAP	54	192	0
TAP	54	192	5
STR	55	0	2
SI_	55	0	2	96	96	7
STR	55	0	3
SI_	55	0	3	96	96	6
HLD	56	0	1	96
TAP	56	96	0
TAP	56	192	2
TAP	56	192	7
TAP	57	0	4
TAP	57	0	5
TAP	57	96	3
TAP	57	96	6
TAP	57	192	2
TAP	57	192	3
TAP	57	288	1
TAP	57	288	4
TAP	58	0	3
TAP	58	0	4
TAP	58	96	3
TAP	58	96	4
TAP	58	192	2
TAP	58	192	5
TAP	58	288	1
TAP	58	288	6
BST	59	0	0
SXL	59	0	0	96	288	3
BST	59	0	7
SXR	59	0	7	96	288	4

T_REC_TAP	196
T_REC_BRK	2
T_REC_XTP	0
T_REC_HLD	21
T_REC_XHO	0
T_REC_STR	10
T_REC_BST	4
T_REC_XST	0
T_REC_TTP	0
T_REC_THO	0
T_REC_SLD	14
T_REC_ALL	247
T_NUM_TAP	206
T_NUM_BRK	6
T_NUM_HLD	21
T_NUM_SLD	14
T_NUM_ALL	247
T_JUDGE_TAP	212
T_JUDGE_HLD	68
T_JUDGE_SLD	14
T_JUDGE_ALL	294
TTM_EACHPAIRS	73
TTM_SCR_TAP	103000
TTM_SCR_BRK	15600
TTM_SCR_HLD	21000
TTM_SCR_SLD	21000
TTM_SCR_ALL	160600
TTM_SCR_S	155200
TTM_SCR_SS	160000
TTM_RAT_ACV	10037

